<?xml version="1.0" standalone="no"?>
<!DOCTYPE svg PUBLIC "-//W3C//DTD SVG 1.1//EN" "http://www.w3.org/Graphics/SVG/1.1/DTD/svg11.dtd" >
<svg xmlns="http://www.w3.org/2000/svg" xmlns:xlink="http://www.w3.org/1999/xlink" version="1.1">
<metadata></metadata>
<defs>
<font id="dans_hand_writingregular" horiz-adv-x="20" >
<font-face units-per-em="2048" ascent="1638" descent="-410" />
<missing-glyph horiz-adv-x="860" />
<glyph horiz-adv-x="0" />
<glyph unicode="&#xd;" horiz-adv-x="0" />
<glyph horiz-adv-x="0" />
<glyph horiz-adv-x="0" />
<glyph unicode=" "  horiz-adv-x="860" />
<glyph unicode="&#x09;" horiz-adv-x="860" />
<glyph unicode="&#xa0;" horiz-adv-x="860" />
<glyph unicode="!" horiz-adv-x="311" d="M20 360q4 12 11.5 27t13.5 25q16 16 36.5 18t39 -8t31 -29.5t12.5 -44.5q0 -29 -22.5 -59.5t-43.5 -30.5q-4 0 -18 10.5t-31 24.5q-23 23 -28 35t-1 32zM100 840q-4 45 1 108.5t14.5 125t22 111.5t24.5 68l-4 2q16 25 45.5 26t52.5 -21q59 -59 16 -248 q-18 -90 -31.5 -163t-23.5 -144q-4 -39 -9 -47.5t-28 -4.5q-70 6 -80 187z" />
<glyph unicode="#" horiz-adv-x="856" d="M20.5 697q-0.5 8 12.5 22q18 18 90 24q59 4 68.5 19.5t-44.5 23.5q-37 6 -71.5 29t-34.5 41q0 20 37 42t80 28q23 4 42 9t23 9t16.5 46t26.5 95q12 51 22.5 82t22 46.5t23.5 18.5t31 -1q37 -10 47 -42t-2 -108q-12 -80 -3 -97t58 -1q27 8 41 15.5t24.5 25.5t19.5 57 t28 115q8 33 17 60.5t13 33.5l-6 10q14 16 42 14.5t48 -22.5q23 -23 24 -70.5t-18 -101.5q-6 -20 -11 -36.5t-5 -20.5t17.5 -7t41.5 -7q70 -10 87.5 -33t-23.5 -55q-12 -10 -34.5 -18.5t-41.5 -12.5q-27 -4 -41 -14.5t-26 -30.5q-37 -61 -7 -105q37 -47 -10 -106 q-27 -33 -51 -148q-18 -88 -35.5 -128t-38.5 -40q-25 0 -36 31t-15 105q-2 41 -7 74.5t-9 39.5q-10 12 -32 12.5t-43.5 -9t-41 -28t-27.5 -38.5q-4 -14 -13 -49t-17 -72q-23 -102 -62 -129t-70 39q-8 16 -8 40.5t6 71.5q4 35 8.5 67t6.5 42q2 23 -54 51q-23 12 -45 29.5 t-28 30.5q-12 23 -12.5 31zM360 778q0 -16 8.5 -21t41.5 -5q45 0 60 13t15 52v2q0 27 -5 32t-31 5q-35 0 -62 -24.5t-27 -53.5z" />
<glyph unicode="$" horiz-adv-x="671" d="M24 479.5q1 18.5 5 31.5t10 13t24.5 -12t36.5 -29q29 -23 47.5 -31t45.5 -8q47 0 60 18.5t1 72.5q-6 29 -5 51t4 43.5t7 43t4 50.5q0 45 -19.5 65.5t-86.5 42.5q-76 25 -101.5 79.5t15.5 101.5q10 12 40.5 33.5t63.5 37.5q37 20 55.5 33.5t27.5 29t15.5 36t18.5 51.5h4 q35 82 76 -21q8 -20 14 -31.5t13.5 -17.5t19.5 -8t35 -4q57 -6 73.5 -21.5t16.5 -62.5q0 -37 -6.5 -45t-36.5 -14q-41 -8 -64 -43q-14 -25 -19 -41.5t2 -31.5t26.5 -32.5t56.5 -42.5t70.5 -54.5t43.5 -45.5q59 -88 21.5 -183.5t-160.5 -166.5q-25 -16 -42 -27.5t-28.5 -22 t-18.5 -22.5t-15 -29q-23 -49 -40.5 -50t-41.5 46q-8 16 -14.5 25.5t-15.5 15.5t-24.5 10t-41.5 9q-57 10 -101.5 33.5t-60.5 54.5q-6 12 -9 31.5t-2 38zM401.5 544q4.5 -40 18.5 -48q12 -8 25.5 -1t46.5 40q16 16 26 28t15.5 22.5t7.5 21.5t2 28q0 35 -7 46.5t-38 31.5h-2 q-18 12 -35 20t-21 8q-14 0 -24 -34.5t-14.5 -78.5t0 -84z" />
<glyph unicode="%" horiz-adv-x="825" d="M21.5 332.5q-5.5 15.5 1.5 29.5q4 10 21 36t39.5 57.5t48.5 65.5t48 61q12 14 44 60t71 104.5t79 121t68 111.5q20 37 60.5 93t81.5 110.5t73.5 94.5t38.5 42v-2q51 23 88 -17q23 -25 19 -53t-39 -71q-25 -31 -58.5 -79t-70.5 -103.5t-75 -111t-68 -100.5 q-23 -35 -46.5 -70.5t-33.5 -52.5q-8 -16 -27.5 -42.5t-40.5 -49.5q-20 -23 -41.5 -50.5t-32.5 -45.5q-16 -27 -39.5 -58.5t-49 -59t-48 -47t-35.5 -21.5q-16 -4 -32.5 2t-27.5 18t-16.5 27.5zM130 1026q-1 16 2 31.5t11 23.5l-2 -2q35 35 111 -20q37 -27 46 -53.5 t-11 -47.5q-8 -8 -26.5 -11t-39 -2t-40 7t-29.5 17q-10 8 -15.5 24.5t-6.5 32.5zM519.5 575q-3.5 27 12.5 43h-2q12 12 32 12.5t38 -9t30.5 -25.5t12.5 -37q0 -41 -36 -50t-66 21q-18 18 -21.5 45z" />
<glyph unicode="&#x26;" horiz-adv-x="724" d="M21.5 847q-1.5 52 44.5 103q35 39 86 59.5t100 12.5q41 -6 62.5 -8t31.5 2t14.5 15t10.5 36t11 54.5t9 47.5l6 -4q4 29 12.5 36t36.5 7q27 0 42.5 -6t22.5 -26.5t9 -59.5t0 -102q-2 -66 -1 -103t8.5 -55t22.5 -23.5t42 -5.5q90 -2 113 -36q12 -20 -14.5 -49t-65.5 -35 q-37 -6 -58.5 -30t-17.5 -56q6 -61 -33 -66.5t-86 51.5q-16 18 -26.5 29.5t-21.5 15.5t-26.5 5t-42.5 1q-88 0 -154.5 27t-101 69t-36 94zM205 827q6 -10 28.5 -16t48 -7t46 3t24.5 14q6 18 -12 41v-2q-16 18 -44 22.5t-52.5 -2t-37.5 -20.5t-1 -33z" />
<glyph unicode="(" horiz-adv-x="385" d="M16 618q0 51 1 85t6.5 64t13.5 63.5t22 82.5q45 154 104.5 261.5t112.5 134.5l-2 -2q16 8 30.5 13t19.5 5q16 0 25 -14.5t12.5 -36t-3 -47t-20.5 -45.5q-57 -84 -99 -189.5t-65.5 -214t-27 -210t19.5 -177.5q4 -18 27.5 -52t52.5 -67q51 -59 60 -82.5t-17 -39.5 q-12 -8 -37 -1t-52.5 23t-55 41t-44.5 49q-23 35 -39 71t-26 78t-14.5 92t-4.5 115z" />
<glyph unicode=")" horiz-adv-x="409" d="M18 236q0 10 13.5 38.5t31.5 57.5q47 74 83 153.5t63 173.5q10 33 16 58.5t9.5 49.5t3.5 51.5t-2 64.5q-2 66 -7.5 101.5t-17.5 62.5q-16 33 -62.5 83t-97.5 91q-25 20 -30.5 58t14.5 58l-6 -4q27 27 77 4.5t102 -76t96 -127t63 -147.5q27 -111 10 -227.5t-78 -270.5 q-16 -41 -37.5 -84t-44 -79.5t-43 -63t-35.5 -37.5q-10 -6 -30.5 -11t-40.5 -5q-33 0 -41.5 5t-8.5 22z" />
<glyph unicode="*" horiz-adv-x="622" d="M18.5 888q6.5 25 47.5 60q35 29 40 39t-6 33q-14 33 -13 65.5t17 44.5q20 14 74 9l58 -6l20 71q8 29 17.5 54.5t13.5 31.5h-6q6 6 20 10.5t29.5 4.5t29 -4.5t19.5 -12.5q4 -6 8 -30.5t6 -53.5q2 -31 5 -46t14.5 -19t33 3t58.5 23q43 18 54 19.5t26 -13.5q35 -35 -58 -104 q-86 -63 -26 -111q47 -37 23.5 -61.5t-101.5 -20.5q-59 2 -82 -13t-31 -60q-4 -16 -13 -32.5t-21.5 -28t-24.5 -17.5t-21 -2q-8 4 -18 18.5t-16 30.5q-12 29 -23.5 35t-50.5 6q-33 0 -50.5 5t-29.5 18q-29 29 -22.5 54z" />
<glyph unicode="+" horiz-adv-x="616" d="M18 772q0 29 24 42t89 17q68 4 87.5 15.5t19.5 46.5q0 16 5 45t13 58.5t16.5 54t14.5 32.5l-6 -2q14 16 41.5 13.5t48.5 -23.5q8 -8 13 -15t6 -21.5t0 -38t-3 -62.5q-4 -59 -3 -90t7 -41q6 -6 32 -16.5t56 -18.5q61 -16 88 -34.5t22 -35t-41 -28t-102 -11.5q-27 0 -43 -2 t-25 -10t-14.5 -21.5t-7.5 -37.5q-4 -18 -13 -40t-19 -32l-25 -27l-27 29q-29 27 -34 84q-4 31 -7.5 47.5t-11.5 24.5t-25.5 11t-48.5 7q-59 6 -93 27.5t-34 52.5z" />
<glyph unicode="," horiz-adv-x="262" d="M22.5 100.5q-10.5 20.5 18.5 57.5q47 61 54 125.5t-27 117.5q-23 37 -27 76t12 55h2q27 27 74 1.5t86 -87.5q31 -47 29 -116.5t-37 -134.5q-29 -57 -59.5 -82t-71.5 -29q-43 -4 -53.5 16.5z" />
<glyph unicode="-" horiz-adv-x="520" d="M20.5 670.5q-2.5 19.5 10 36t37.5 24.5q10 4 67.5 5t126.5 -1q49 0 83 -2t57.5 -4t38 -6t26.5 -10q74 -37 -10 -78q-33 -16 -84 -26.5t-106.5 -14.5t-106.5 -1t-84 13q-27 8 -40 26.5t-15.5 38z" />
<glyph unicode="." horiz-adv-x="219" d="M23 436q0 20 4 40t10 28l4 2q16 18 44 17t53.5 -16t45 -41t19.5 -54q0 -29 -14.5 -48.5t-36 -27.5t-48 -4t-49.5 24q-20 16 -26 31.5t-6 48.5z" />
<glyph unicode="/" horiz-adv-x="473" d="M23 342.5q0 19.5 13 66t43 131.5t83 236q14 43 29.5 86t27.5 79t20.5 62.5t12.5 36.5q8 27 24.5 70t35 86t33 77t20.5 40v-4q10 14 35.5 15t39.5 -13q10 -10 12.5 -34t-7 -67t-30 -109.5t-53.5 -166.5q-18 -55 -38.5 -114.5t-40 -114t-36 -99.5t-26.5 -71 q-23 -53 -39 -108.5t-20 -78.5t-13.5 -47.5t-21.5 -36.5q-18 -23 -26.5 -25.5t-28.5 7.5q-31 16 -43 59q-6 18 -6 37.5z" />
<glyph unicode="0" horiz-adv-x="679" d="M20 739.5q3 53.5 27 134.5q14 43 24.5 73t22.5 54.5t29.5 48t42.5 58.5q80 104 180 129l-4 10q18 4 46 4t56.5 -3t53 -10t41.5 -15q72 -45 98.5 -103.5t17.5 -161.5q-4 -47 -11 -97t-17.5 -97t-23.5 -89t-25 -71q-49 -106 -128 -156.5t-160 -47.5t-152.5 60.5 t-104.5 166.5q-16 59 -13 112.5zM166 692q0 -37 1 -57.5t4 -32.5t11 -20.5t21 -18.5q53 -45 99 -38t99 67q47 51 70 132t27 210q2 51 2 79.5t-2 46t-8.5 26t-14.5 18.5q-35 39 -71.5 27.5t-102.5 -76.5q-25 -25 -40 -43.5t-26.5 -37t-19.5 -39t-18 -50.5q-18 -53 -24.5 -94 t-6.5 -99z" />
<glyph unicode="1" horiz-adv-x="333" d="M24.5 1068.5q-14.5 29.5 2.5 51.5q6 8 25.5 23.5t44 29t49 24.5t40.5 15v-2q29 6 58.5 2t46.5 -16q20 -16 21 -73.5t-17 -141.5q-10 -45 -20.5 -90t-14.5 -64q-2 -10 -4 -36.5t-3 -65.5t-3 -87t-2 -97q0 -117 -2 -182.5t-10.5 -98.5t-22.5 -40t-41 -7q-53 0 -79.5 48 t-12.5 116q2 12 5 36.5t8 79t10.5 144.5t13.5 233l6 111l-47 33q-37 25 -51.5 54.5z" />
<glyph unicode="2" horiz-adv-x="626" d="M20 399q0 27 31 52q12 10 51 45.5t80 76.5q31 31 52.5 54.5t38 46t30.5 48.5t33 62q35 68 46 106t15 81q2 49 -2 64.5t-24 35.5l-31 29l-49 -27q-39 -20 -61.5 -32.5t-37 -17.5t-21.5 -4t-13 5q-18 12 -24.5 45t3.5 64q6 14 22.5 30.5t38 30.5t47 25.5t50.5 15.5l-2 -4 q84 14 143.5 -34t81.5 -148q45 -190 -141 -461q-23 -31 -35 -56.5t-10 -29.5q4 -4 39 -18.5t82 -30.5q94 -31 128.5 -55.5t18.5 -49.5q-25 -39 -194 -6q-57 10 -104.5 12t-121.5 -2q-51 -4 -82.5 -3t-48 5t-23 15.5t-6.5 29.5z" />
<glyph unicode="3" horiz-adv-x="544" d="M20 408q0 35 11.5 40t40.5 -16q10 -8 34.5 -12t52 -4t54.5 3t41 9q10 4 35.5 25.5t50.5 46.5q20 20 32.5 34.5t18.5 25.5t7 24.5t1 36.5q0 41 -6 55t-28 33q-25 20 -70 37.5t-123 35.5q-18 4 -37.5 14.5t-28.5 20.5q-23 23 -20.5 67t25.5 74q23 29 23.5 37.5t-19.5 8.5 t-37 11t-26 29.5t-9 41t12 44.5q8 16 47 35t84 29l2 -6q10 2 29 2t39 -3t37.5 -7t28.5 -9q25 -12 40 -39.5t15 -60.5t-15.5 -61.5t-56.5 -73.5q-31 -35 -25.5 -53.5t52.5 -42.5q29 -14 59.5 -38t56 -50.5t44 -52t24.5 -46.5q12 -49 2 -104t-39 -96t-74 -74t-94 -56.5 t-97 -32.5t-85 1q-47 12 -78 45t-31 72z" />
<glyph unicode="4" horiz-adv-x="610" d="M20.5 525q-2.5 20 2 44.5t15.5 57t30 80.5q29 68 60.5 168t66.5 227l16 61h49q39 0 59.5 -14t21.5 -53t-17.5 -106.5t-55.5 -172.5q-14 -41 -27.5 -81t-24.5 -73.5t-17 -57t-9 -32.5q-4 -33 0.5 -38t34.5 -5q25 0 39.5 6.5t23.5 28t14 60.5t11 104q4 66 10.5 96.5 t20.5 48.5q23 29 41 33t41 -18q25 -23 33 -77t-4 -116q-10 -55 2 -77.5t61 -45.5q35 -14 56.5 -39.5t15.5 -41.5q-4 -8 -16.5 -17.5t-28.5 -15.5t-37 -20.5t-35 -28.5q-12 -12 -18 -21.5t-9.5 -22t-3.5 -34t2 -58.5q2 -41 1 -66.5t-5 -39.5t-13 -18.5t-24 -4.5 q-49 0 -79 148q-6 27 -11.5 49.5t-9.5 26.5t-31.5 9t-62.5 9q-78 4 -121 27.5t-59 70.5q-6 20 -8.5 40z" />
<glyph unicode="5" horiz-adv-x="673" d="M23.5 1019.5q-15.5 63.5 52.5 145.5q25 29 43 41.5t41 16.5q18 4 59 18t82 33q41 18 91 35.5t81 23.5l-4 10q39 8 65.5 13.5t43 3.5t27.5 -8t24 -19q47 -47 -25 -82q-10 -6 -56 -27.5t-99 -47.5q-53 -25 -105.5 -54.5t-73.5 -46.5q-23 -16 -41 -26.5t-22 -10.5 q-18 0 -11 -13t31 -26q14 -8 40 -29.5t50.5 -49t46 -55t31.5 -46.5q10 -18 19.5 -44.5t16.5 -53.5t11 -52.5t4 -43.5q0 -43 -31.5 -89.5t-79.5 -82t-103.5 -56t-100.5 -12.5q-39 6 -66.5 29.5t-35.5 52.5q-8 35 7 47t60 6q100 -12 189 70q41 39 48 70.5t-16 72.5 q-8 16 -28.5 39t-46 47.5t-53 46t-50.5 33.5q-100 57 -115.5 120.5z" />
<glyph unicode="6" horiz-adv-x="571" d="M20.5 687q-2.5 54 3 115.5t18.5 124t32 117.5q10 29 31.5 70t46 82t49.5 73t39 42l-4 -2q23 16 47 17t39 -13q23 -23 11.5 -70t-59.5 -125q-27 -43 -46 -84t-23 -57t-11.5 -35.5t-13.5 -32.5q-12 -25 -15 -48t2 -37.5t16.5 -15.5t27.5 17q12 14 34.5 29.5t49.5 28 t53.5 19.5t48.5 7q59 0 90 -31.5t50 -115.5q8 -37 11 -67.5t-1 -57.5t-14.5 -52.5t-28.5 -56.5q-51 -86 -128 -121.5t-161 -13.5q-27 6 -54.5 26.5t-53 49.5t-46 61.5t-28.5 65.5q-10 37 -12.5 91zM219 522q37 -16 70 -5t80 56t65 90t2 80v2q-18 41 -57 29t-107 -78 q-143 -137 -53 -174z" />
<glyph unicode="7" horiz-adv-x="512" d="M23 1212q0 29 31.5 41.5t125.5 16.5l-2 -4q51 4 88 6t39 2q2 2 19.5 -1t40.5 -7q47 -10 75.5 -37t28.5 -62q0 -10 -5 -45t-13 -73l-19 -91l31 -36q66 -78 -21 -117q-20 -10 -35.5 -25.5t-27.5 -43t-25.5 -70.5t-27.5 -111q-23 -92 -36.5 -146.5t-22.5 -85t-15 -43 t-14 -16.5q-25 -14 -40.5 4.5t-21.5 60.5t-2 104.5t21 135.5q10 51 15 80t2 44.5t-15.5 24.5t-36.5 21q-53 27 -41 68t78 61q45 12 66.5 41t39.5 97q10 43 14.5 65.5t-5 33.5t-33 11t-66.5 -4q-33 -2 -53.5 -3t-34.5 1t-25.5 7t-23.5 13q-31 18 -42 36t-11 46z" />
<glyph unicode="8" horiz-adv-x="546" d="M20.5 1059.5q-0.5 21.5 12.5 62.5q6 25 16 50.5t19 35.5q8 12 27.5 26.5t42 29t47 26t42.5 15.5l-6 4q78 18 133.5 0.5t114.5 -76.5q29 -29 42 -46.5t10 -31.5t-24.5 -32.5t-62.5 -51.5q-25 -18 -56.5 -51t-58 -66.5t-45 -61.5t-18.5 -40q0 -4 21.5 -29.5t52.5 -56.5 q80 -78 113.5 -134.5t35.5 -109.5t-16.5 -83.5t-61.5 -49.5q-53 -23 -106 -20.5t-97 24t-78 61.5t-48 95q-4 14 -6.5 27.5t-1 27.5t5.5 31.5t12 44.5q12 41 17 69.5t5 50t-7 39t-19 38.5q-10 16 -23.5 50t-21.5 64q-12 47 -12.5 68.5zM137 1004.5q2 -29.5 27 -43.5 q6 -4 14 -2t21.5 12t36 31.5t59.5 58.5t58.5 59.5t31.5 35.5t12 21.5t-2 14.5q-29 43 -121 -4q-43 -23 -74.5 -55.5t-48 -65.5t-14.5 -62.5zM156 612q0 -29 8 -45t31 -39q57 -55 131 -22q35 16 26.5 44t-61.5 83h-6q-29 29 -51.5 48t-28.5 19q-18 0 -33.5 -26.5t-15.5 -61.5 z" />
<glyph unicode="9" horiz-adv-x="569" d="M23 940q-6 31 8 70t40.5 78.5t64.5 75.5t81 61l-2 4q51 29 104.5 33t99.5 -13.5t81 -54.5t47 -88q4 -23 0 -67t-21 -121q-12 -61 -21 -113.5t-15.5 -104t-11.5 -106.5t-11 -123q-4 -57 -10 -98t-13 -49q-16 -20 -45.5 -14.5t-50.5 34.5q-10 12 -16 35.5t-7 61.5t1 94.5 t8 134.5l8 104l-96 6q-106 6 -156.5 42t-66.5 118zM164 979.5q-2 -27.5 22 -43.5q47 -29 140 59q35 31 46 48t11 40q0 35 -14.5 49.5t-49.5 14.5q-23 0 -36 -7t-29 -30q-10 -16 -27.5 -36.5t-31.5 -37.5q-29 -29 -31 -56.5z" />
<glyph unicode=":" horiz-adv-x="212" d="M17 452.5q-1 16.5 2.5 32t11.5 23.5h-2q16 16 48 13t58 -23q25 -18 30 -55t-13 -56q-8 -8 -23.5 -11t-32 -2t-33 6t-24.5 15q-10 8 -15.5 24.5t-6.5 33zM43 870q-19 58 14 99h-2q12 16 45 13t60 -24q18 -14 24 -28.5t6 -42.5q0 -43 -12 -60.5t-47 -17.5q-37 0 -57.5 14.5 t-30.5 46.5z" />
<glyph unicode=";" horiz-adv-x="270" d="M22.5 80.5q-4.5 23.5 30.5 77.5q16 25 32.5 55.5t23.5 48.5q10 31 7 43t-34 45q-33 37 -41 76t12 59l2 2q41 41 123 -43q51 -53 64.5 -98t-0.5 -113q-20 -82 -67.5 -133t-100.5 -47q-47 4 -51.5 27.5zM83 886q1 24 15 38v-2q14 14 35 15t37 -10.5t28.5 -29.5t12.5 -43 q0 -66 -53 -66q-23 0 -40.5 15.5t-26.5 37t-8 45.5z" />
<glyph unicode="&#x3c;" horiz-adv-x="679" d="M63 936q16 18 56.5 47t87.5 62.5t93 67.5t75 63l2 2q18 18 38.5 28.5t33.5 10.5q14 0 30.5 -9.5t30.5 -24t24.5 -30.5t10.5 -31q-2 -29 -22.5 -50t-80.5 -56q-61 -35 -112 -78t-103 -82q-16 -12 -28.5 -26.5t-12.5 -20.5q0 -12 10.5 -24.5t44 -34t96 -55t165.5 -89.5 q49 -27 79.5 -45t48 -32.5t23.5 -28t6 -29.5q2 -35 -59 -28.5t-172 51.5q-59 25 -106.5 46t-85 43.5t-68.5 47t-62 55.5q-143 141 -43 250z" />
<glyph unicode="=" horiz-adv-x="624" d="M20.5 845q-2.5 11 8.5 29q6 10 20.5 22.5t30.5 16.5q18 6 72.5 7.5t116 -0.5t117.5 -7.5t79 -13.5q53 -16 64.5 -36.5t-19.5 -51.5q-12 -12 -21.5 -18.5t-28 -9.5t-49 -5t-85.5 -4q-66 -4 -114 -7t-52 -7q-10 -6 -26.5 -3t-34 10t-35 19.5t-25.5 24.5q-16 23 -18.5 34z M89 613.5q-3 17.5 0 33t13 23.5q8 6 39 14t68 12t64.5 8.5t31.5 8.5l2 -2q4 4 43 1t129 -20q35 -6 61.5 -16t39.5 -21q41 -39 15 -58t-126 -30l-102.5 -10t-106.5 -12q-37 -4 -59.5 -6t-35.5 -2t-21.5 4t-18.5 12q-14 10 -23.5 26.5t-12.5 34z" />
<glyph unicode="&#x3e;" horiz-adv-x="626" d="M20 1102q0 16 4.5 30.5t10.5 20.5q16 16 46 13t101 -25q35 -10 95.5 -29.5t109.5 -34.5q37 -12 61.5 -21t43 -18.5t33 -20.5t30.5 -26q47 -45 51 -79.5t-33 -84.5q-31 -43 -83 -90t-106 -87t-103.5 -65.5t-75.5 -25.5q-70 0 -70 53q0 12 3 21.5t14.5 22t33 29.5t58.5 46 q94 72 136 115t42 65q0 27 -19 27q-14 0 -90.5 16.5t-189.5 42.5q-45 10 -74 40t-29 65z" />
<glyph unicode="?" horiz-adv-x="563" d="M41 1110q-68 74 88 117l2 4q166 43 318 -25q27 -12 42 -20t23 -16.5t13 -19.5t10 -28q12 -45 5 -98t-30 -100q-12 -25 -36.5 -55.5t-57.5 -63.5t-71 -66.5t-77 -62.5q-35 -27 -73.5 -55.5t-57.5 -45.5l-45 -38l-26 24q-41 39 -20.5 86t108.5 113q35 25 74.5 59.5 t75.5 68.5t63.5 62.5t36.5 44.5q6 12 10 30.5t4 33.5q0 23 -9.5 30t-50.5 17q-37 8 -67.5 7t-85.5 -11q-47 -8 -75 -12.5t-44 -3.5t-26.5 6.5t-20.5 17.5zM62.5 224.5q-3.5 21.5 1 43t16.5 37.5q6 8 20.5 12.5t30.5 2t32.5 -7.5t26.5 -15t16.5 -29.5t7.5 -40t-2 -39 t-11 -26.5q-12 -12 -45 -13.5t-56 11.5q-16 8 -25 25.5t-12.5 39z" />
<glyph unicode="@" horiz-adv-x="1173" d="M33 610q-29 117 11 231.5t149 219.5q41 39 83.5 70.5t95 56t116 46.5t145.5 42h-2q68 16 184 12q39 -2 63.5 -4t43 -6t35 -10t36.5 -19q31 -16 54.5 -35.5t40 -44t27.5 -57.5t22 -76q33 -154 -13.5 -283.5t-160.5 -205.5q-23 -14 -37.5 -23.5t-28.5 -13.5t-29.5 -5 t-38.5 -1q-39 2 -61.5 8t-48.5 23q-39 27 -61.5 29.5t-47.5 -15.5q-10 -6 -30.5 -12.5t-40.5 -10.5q-41 -6 -76 5.5t-61.5 36t-40 59.5t-9.5 75q6 74 39 125.5t109 108.5q74 55 123 70.5t106 -0.5q33 -10 55.5 -36t31.5 -59.5t4 -69.5t-27 -63q-31 -37 -30 -81t32 -58 q27 -12 66.5 -2t66.5 35q35 31 65.5 90t38.5 112q4 31 6 48.5t2 31t-2 29.5t-6 47q-6 55 -22.5 90t-46 52.5t-76.5 18.5t-117 -11q-35 -6 -86 -19.5t-102.5 -29t-95.5 -32t-68 -28.5q-25 -12 -62 -45t-75.5 -70.5t-70.5 -75.5t-44 -63q-18 -39 -23.5 -86t4 -93t31 -88 t53.5 -73q37 -35 109 -64.5t141 -37.5q133 -18 105 -66q-10 -18 -38 -27.5t-81 -11.5q-66 -2 -135.5 21.5t-134.5 68.5q-70 47 -106 101.5t-58 148.5zM473.5 713q-14.5 -29 1.5 -47q16 -20 32.5 -14.5t57.5 46.5q35 35 53.5 69t34.5 87v-2q12 37 -23.5 19.5t-92.5 -76.5 q-49 -53 -63.5 -82z" />
<glyph unicode="A" horiz-adv-x="688" d="M20 252q0 3 -1 6q0 22 10 64q6 33 21.5 100t34.5 149t40.5 166t40.5 152q14 51 29.5 113.5t23.5 101.5q12 53 23.5 78t31.5 45l5 -6q28 26 57.5 25.5t58.5 -25.5q6 -6 19.5 -36t27 -66t22.5 -68.5t9 -46.5q0 -6 6 -35t17 -64q16 -63 37.5 -147t43 -167t41 -154.5 t29.5 -108.5q10 -35 16.5 -73t8.5 -71.5t-2 -58.5t-13 -35q-16 -18 -41.5 -17t-44.5 19q-8 8 -21 38t-28.5 73t-32 96t-30.5 107l-25 90h-41q-78 0 -127 -35t-51 -92q0 -16 -10 -51t-23.5 -72t-28 -65.5t-22.5 -33.5q-25 -16 -54.5 0.5t-45.5 53.5q-9 29 -11 51zM292 652 q6 -34 46 -34q35 0 43 21q3 8 3 20q0 21 -9 54h-2q-10 45 -29.5 62.5t-30.5 -9.5q-22 -66 -22 -101q0 -7 1 -13z" />
<glyph unicode="B" horiz-adv-x="788" d="M29 1106q6 8 25.5 20.5t45 25.5t54 24.5t51.5 17.5l2 -2q16 4 51 4t75 -3t76.5 -9t55.5 -15q37 -16 56.5 -40.5t29.5 -71.5q2 -7 1 -16q0 -27 -20 -71q-26 -56 -79 -126q-37 -47 -39 -69.5t28 -31.5q20 -6 52 -20t65 -31.5t62.5 -37t46.5 -33.5q53 -49 75.5 -90.5 t22.5 -98.5q0 -37 -4 -65.5t-16.5 -55t-34 -54.5t-54.5 -60q-33 -35 -56 -56.5t-48 -38t-54.5 -31t-72.5 -32.5q-78 -33 -146 -47q-42 -9 -69 -9q-17 0 -29 3q-18 4 -31.5 17t-22.5 48t-16.5 98.5t-17.5 169.5q-8 86 -13 144.5t-6 100.5v27q0 25 1 45q2 30 6 58q4 31 8 85.5 t8 101.5l6 110l-32 21q-51 32 -51 66q0 14 8 28zM224 212q1 -46 13.5 -63.5t38 -12.5t72.5 24q37 14 77 36.5t77 49t66.5 52.5t43.5 48q36 51 36 95q0 45 -38 83q-39 37 -81.5 57.5t-110.5 34.5l-2 -2q-31 6 -67 10.5t-54 4.5h-47l-8 -54q-4 -23 -7.5 -91t-5.5 -140 q-3 -69 -3 -112v-20zM262 899q2 -12 12 -12q16 0 31 26q4 10 18.5 27.5t30.5 34.5q28 30 28 48q0 4 -1 7l-2 -2q-4 8 -16.5 13.5t-29 6.5t-30.5 -2.5t-20 -11.5q-4 -6 -9.5 -29.5t-9.5 -50.5q-4 -43 -2 -55z" />
<glyph unicode="C" horiz-adv-x="751" d="M20 571q2 45 13.5 104.5t32.5 145.5q6 29 24.5 73t41 91t47 90t44.5 72q43 57 75 81t75 32h-2q25 5 46 5q80 0 97 -71q2 -8 2 -15q0 -40 -57 -51q-45 -10 -92.5 -64t-92.5 -146q-90 -186 -90 -361q0 -74 15.5 -116t58.5 -87l47 -49l117 4q39 2 64.5 4t45 6.5t37 11.5 t41.5 19q70 38 93 38h1q22 -1 23 -40q0 -25 -9 -44t-38 -50q-25 -27 -50.5 -44t-57 -28.5t-73.5 -15.5t-100 -4h-127l-63 43q-57 39 -95 86t-65 115q-15 44 -23 82q-6 29 -6 61q-1 11 0 22z" />
<glyph unicode="D" horiz-adv-x="739" d="M21.5 1111.5q2.5 13.5 33.5 31.5v-2q25 16 41 17h4q18 0 62 -9q80 -18 136 -36.5t103.5 -44.5t90.5 -62.5t94 -90.5q35 -35 57.5 -64.5t37.5 -59t23.5 -64.5t14.5 -80q1 -8 0 -17q0 -24 -3 -52q-5 -40 -17.5 -81.5t-29 -79.5t-32.5 -61q-18 -25 -52 -55.5t-73 -60 t-77 -52t-62 -30.5q-37 -14 -89 -14h-16q-62 2 -135 22q-29 8 -44 21.5t-23.5 58.5t-9.5 135t-1 254q0 117 -1 192.5t-3 121.5t-5 69.5t-9 36.5q-18 43 -15.5 56.5zM203 305h59q29 0 48.5 3t39 13.5t44 32t61.5 58.5q85 86 113 162q14 38 14 77t-13 78q-6 18 -31.5 51 t-58.5 67t-68.5 63.5t-60.5 41.5l2 4q-47 23 -71.5 26t-38.5 -13q-4 -6 -9.5 -84t-9.5 -195q-2 -55 -4 -107.5t-3 -96.5t-3 -75.5t-4 -43.5z" />
<glyph unicode="E" horiz-adv-x="575" d="M20 491.5v153.5q0 121 2.5 208t4.5 143.5t6 86t8 35.5t25.5 14.5t48.5 16.5q29 8 65.5 18.5t74.5 22.5t73.5 22.5t64.5 18.5l2 -4q18 6 41 8t44.5 2t39 -3t27.5 -9q14 -10 7 -28.5t-34 -41.5q-12 -12 -47 -31.5t-76 -40t-78.5 -37t-56.5 -20.5q-25 -6 -45 -30.5 t-33.5 -53.5t-15.5 -57.5t12 -42.5q12 -12 28 -14q3 0 8 -1q18 0 56 9q51 8 81 8q13 0 22 -1q31 -5 31 -30q0 -57 -152 -133l-84 -41l-4 -119q-2 -41 -2 -65.5t2 -40t7 -24.5t13 -17q12 -12 23.5 -18.5t29 -5.5t45 11.5t74.5 28.5q84 33 122 36.5t55 -22.5q12 -18 -17 -52 t-78 -67.5t-106.5 -60t-104.5 -33.5q-35 -4 -51 2.5t-51 32.5q-23 16 -45.5 43t-34.5 54q-10 20 -16 36.5t-8.5 47t-2.5 86z" />
<glyph unicode="F" horiz-adv-x="579" d="M20 1158.5q0 29.5 23 45.5q12 8 39 18.5t62.5 19.5t78.5 17.5t88 14.5l2 -4q56 7 92 7q15 0 26 -1q40 -4 54 -25q5 -7 5 -15q0 -44 -154 -103l-109 -43v-119q0 -55 2 -86t11.5 -43.5t28 -9t48.5 15.5q49 20 93.5 31.5t78 12.5t53 -8.5t19.5 -27.5q0 -12 -11 -28.5 t-30.5 -33t-45 -31.5t-52.5 -24q-25 -10 -58.5 -27.5t-56.5 -33.5q-18 -14 -29.5 -23.5t-15.5 -18.5t-5 -20.5t1 -29.5q2 -20 3 -70.5t3 -101.5v-71t-3 -41t-9 -23.5t-19 -20.5q-27 -31 -47 -22q-23 8 -37 38.5t-26 101t-22.5 187.5t-22.5 297q-4 72 -12.5 125t-18.5 78 q-27 66 -27 95.5z" />
<glyph unicode="G" horiz-adv-x="585" d="M22 581q-1 21 -1 43t1 44q1 45 7 90t16 84q14 59 43 122.5t63.5 120t73.5 100.5t76 64v6q54 31 91 31h4q38 -2 75 -39q25 -25 32 -42t7 -46v-49l-74 8l-71 6l-39 -43q-66 -74 -108 -177t-56 -208q-8 -52 -8 -101t8 -95q14 -92 63 -144q29 -30 59 -30q32 0 65 32 q65 64 106 222q10 45 2 62t-49 26q-68 12 -68 57q0 29 20.5 47.5t49 24.5t60.5 -1.5t54 -29.5q37 -37 42 -94q1 -11 1 -23q0 -54 -18 -137q-35 -147 -94.5 -235.5t-126.5 -88.5q-35 0 -85 19.5t-83 44.5q-18 14 -39 43t-39.5 65.5t-32.5 74.5t-20 71t-7 75z" />
<glyph unicode="H" horiz-adv-x="573" d="M20 858q0 141 1.5 230.5t2.5 141.5t4 74.5t9 28.5h8q16 18 44 13t54 -29q8 -8 12.5 -18.5t7.5 -34t5 -65.5t4 -114q2 -74 4 -114.5t5 -62t7.5 -28t12.5 -8.5q10 -2 37.5 3.5t56.5 12.5t53.5 16t28.5 16q12 16 19 55t14 127q8 88 26.5 143t42.5 60q23 4 45.5 -25t28.5 -72 q3 -15 3 -39q0 -11 -1 -25q-2 -42 -6 -79q-4 -27 -6 -111t-2 -193.5t1 -227t5 -214.5q2 -43 -10.5 -62t-31 -18t-37.5 23.5t-32 65.5q-18 66 -29.5 135t-17.5 164q-4 49 -9 80.5t-11 35.5q-10 6 -27.5 4t-52.5 -12q-27 -8 -53.5 -11t-38.5 1l-31 8l-4 -241q-2 -96 -4 -151.5 t-9 -84.5t-17.5 -36t-31.5 -7q-27 0 -42 22.5t-23 91t-11.5 195.5t-3.5 336z" />
<glyph unicode="I" horiz-adv-x="212" d="M19 450v37q-1 47 1 99q2 72 4.5 141.5t6.5 126.5t8 92q18 127 28.5 182.5t20.5 67.5l-4 -6q16 16 42 14t44 -22q6 -8 10 -16.5t6 -24t2 -41v-64.5q-2 -51 -6 -100t-8 -68q-4 -16 -6 -63t-3 -110.5t-1 -134.5t2 -136.5t4 -115.5t6 -70q7 -39 7 -69q0 -39 -12 -65 q-15 -31 -45 -32q-13 0 -28 6q-29 8 -43 46t-28 138q-4 23 -5.5 73.5t-2.5 114.5z" />
<glyph unicode="J" horiz-adv-x="530" d="M25 1008q2 12 16 27.5t32.5 31.5t41 30.5t41.5 22.5q16 6 41.5 16.5t46.5 20.5q18 10 36.5 16.5t24.5 6.5q6 2 19.5 6t25.5 10l10 10q25 14 52.5 15.5t51 -8t40 -26t16.5 -38.5q0 -47 -102 -76q-27 -8 -41.5 -15t-20.5 -18.5t-4 -29t10 -47.5q6 -29 16.5 -74t16.5 -80 q25 -123 34 -209q6 -60 6 -108q0 -21 -1 -40q-4 -63 -25.5 -110t-58.5 -92t-79 -68.5t-109 -40.5q-35 -8 -60 -8q-12 0 -22 2q-29 6 -45 33q-18 35 3 56.5t93 41.5q55 16 89 36t54.5 49.5t27.5 75.5t7 114q0 45 -2 80.5t-8 75.5t-18.5 91.5t-30.5 129.5q-12 47 -32 54 q-4 2 -9 2q-19 0 -51 -20q-18 -10 -37 -18t-29 -8q-12 0 -25.5 8t-23.5 20.5t-16.5 26.5t-1.5 25z" />
<glyph unicode="K" horiz-adv-x="743" d="M16 1096.5q2 15.5 9.5 32t17.5 29.5t20 20q18 10 29.5 7t34.5 -20q14 -10 23.5 -21t17.5 -29.5t15 -47.5t16 -72q8 -41 16 -58t24.5 -7t47 50t86.5 118q23 31 43 57.5t30 36.5l-6 -4q8 8 23.5 14t33 7t32 -2t22.5 -11q12 -12 14 -24.5t-12 -43t-49 -89t-98 -160.5 q-31 -49 -45.5 -82t-15.5 -57.5t13.5 -46t42.5 -48.5q47 -47 113 -89t113 -60q20 -8 39.5 -22.5t32 -31t17.5 -33t-3 -24.5q-12 -17 -42 -17q-18 0 -42 6q-64 16 -199 83q-14 6 -42 24.5t-52 36.5q-25 18 -45.5 31.5t-24.5 13.5q-6 0 -8 -37t-5 -84t-7 -91t-15 -60 q-12 -18 -29.5 -26.5t-36 -8.5t-35.5 9t-28 28q-6 10 -12 63.5t-10 118.5q-6 123 -14.5 227.5t-16.5 183.5t-16 128t-15 61q-4 6 -2 21.5z" />
<glyph unicode="L" horiz-adv-x="698" d="M20 401q6 350 16.5 542t20.5 206v4q8 12 24.5 15t34 0t34 -12t28.5 -23q8 -12 13.5 -23.5t7.5 -34t1.5 -61.5t-0.5 -107q0 -41 -0.5 -91t-2.5 -102t-3 -102.5t-4 -89.5l-8 -192l39 -25q16 -10 30.5 -15t39 -5t67.5 5t115 15q80 12 123 12q6 0 12 -1q43 -2 60 -17 q10 -10 12 -18.5t-8 -24.5q-16 -31 -55 -49.5t-130 -34.5q-53 -10 -111 -14q-39 -3 -76 -3q-18 0 -36 1q-53 2 -96 10t-64 20q-27 16 -43 34t-25 41.5t-12.5 57t-3.5 82.5z" />
<glyph unicode="M" horiz-adv-x="1044" d="M35 313q2 14 6 43t10 65t12.5 78t12.5 83q6 35 13 74.5t11 60.5q4 20 7.5 44.5t3.5 41.5q0 23 9 69t22.5 95t27.5 89t23 48q20 20 59 20q121 0 145 -235q8 -72 13.5 -115t9.5 -64.5t7 -27.5t9 -6t15.5 16.5t19.5 38.5q45 125 78 203t60.5 122t53 63.5t58.5 25.5 q18 4 28.5 5t18.5 0t17.5 -4t25.5 -5q27 -6 51.5 -43t59.5 -125q25 -59 42 -140t37 -223q4 -33 11.5 -79t11.5 -80q6 -41 7 -72q0 -94 -59 -95q-10 0 -22 3q-33 8 -56.5 61t-33.5 146q-12 111 -26.5 202.5t-30 158.5t-31.5 103.5t-31 36.5q-18 0 -43.5 -49t-54.5 -132 t-57.5 -192.5t-53.5 -228.5q-16 -86 -38.5 -121.5t-59.5 -35.5t-55.5 9t-32.5 36q-8 16 -18.5 51t-20.5 74.5t-17 74.5t-7 51l12 -2q0 18 -3 26.5t-8 16t-8.5 16.5t-3.5 29q0 39 -18 39q-16 0 -17 -14t13 -29q12 -12 0 -34q-4 -10 -8 -33t-4 -45q0 -53 -9.5 -92t-17.5 -84 q-6 -43 -31.5 -66.5t-62.5 -23.5q-41 0 -64.5 22.5t-17.5 54.5z" />
<glyph unicode="N" horiz-adv-x="722" d="M23 930q-2 37 -2 68q0 81 12 112q12 32 47 32q12 0 26 -3q25 -6 47.5 -50.5t32.5 -105.5q4 -25 27 -79t54.5 -116.5t65.5 -123t62 -97.5q55 -78 80 -80q8 0 13.5 3.5t8.5 15.5t5 36.5t4 69.5q6 125 15 233.5t21.5 191.5t26 136.5t27.5 71.5l-2 -2q10 10 33.5 12t38.5 -8 q27 -18 33 -38.5t-5 -61.5q-12 -59 -21 -108.5t-14.5 -98.5t-7.5 -104.5t-2 -122.5q0 -74 -4 -139.5t-10 -118t-14.5 -88t-18.5 -48.5q-4 -6 -21.5 -10t-37.5 -4q-109 0 -244 184q-33 43 -59.5 73t-32.5 30q-10 0 -16.5 -51.5t-12.5 -116t-14 -122.5t-21 -75 q-14 -16 -41.5 -14t-46.5 20q-32 32 -32 103q0 36 8 82q6 28 8 56q1 19 1 48v32q-1 52 -5 140t-12 236z" />
<glyph unicode="O" horiz-adv-x="620" d="M22 624q0 5 -1 9q0 97 30 192q23 74 53.5 140.5t64.5 119t67.5 86t64.5 41.5l4 5q22 7 48 7q21 0 45 -4q54 -10 89 -32q16 -10 39 -35t35 -47q10 -18 17.5 -33.5t10.5 -34t5 -44t4 -64.5q4 -118 5 -186v-26q0 -51 -3 -86q-4 -44 -13 -76t-28 -77q-20 -49 -32.5 -76.5 t-25 -46t-27.5 -32t-42 -33.5q-53 -39 -91 -51q-26 -8 -56 -9q-15 0 -31 2q-70 10 -122 66.5t-80 139.5t-30 185zM151 587q1 -83 27 -149q42 -103 100 -103q16 0 33 7q45 18 81 68.5t63 128.5q10 31 16 53t8 42.5t2 43t-2 55.5q-6 109 -18 166t-37 105q-12 23 -21.5 45 t-9.5 32v-4q0 25 -18.5 21t-46.5 -35q-57 -61 -97.5 -141t-60.5 -166q-19 -82 -19 -161v-8z" />
<glyph unicode="P" horiz-adv-x="557" d="M20 1194l39 20v-2q36 19 95 19h10q66 -2 134.5 -20.5t127.5 -50.5t88 -68q12 -16 18.5 -46t6.5 -63t-7.5 -65.5t-19.5 -53.5q-29 -45 -87 -97t-112 -79q-27 -12 -55.5 -32.5t-44.5 -34.5l-39 -35v-129q0 -59 -5 -117.5t-13 -95.5q-6 -29 -11.5 -45.5t-10.5 -24.5t-13 -9 t-23 -1q-31 0 -44 12t-21 45q-2 6 -3 49t-3 111t-3 156t-1 186zM171 938q1 -49 6 -91t13 -44q12 -4 49 20.5t75 58t69 67.5t31 50q0 23 -25.5 47.5t-64.5 36.5t-82 12.5t-56 -12.5q-8 -8 -12 -52q-3 -35 -3 -74v-19z" />
<glyph unicode="Q" horiz-adv-x="647" d="M26 746q17 118 89 253q83 163 198 226v4q51 29 86 33q6 1 11 1q31 0 65 -18q33 -16 56.5 -37.5t39 -51.5t25.5 -71t16 -98q14 -124 14 -226v-32q-3 -115 -28 -186q-29 -82 -52.5 -127t-58.5 -84q-16 -16 -24 -26.5t-11 -25t-4.5 -38t-1.5 -62.5q0 -45 5.5 -92t11.5 -70 q10 -35 10 -46t-10 -21q-10 -8 -19.5 -8t-27.5 10q-68 37 -103 176q-8 35 -14 61.5t-8 32.5q-2 4 -26.5 20.5t-59.5 32.5q-72 39 -109 89.5t-57 136.5q-20 80 -20 157q0 44 7 87zM143 600q0 -41 3.5 -67.5t10.5 -48t20 -39t36 -37.5t34 -24.5t23 1.5q6 4 10.5 12.5t7.5 26.5 t4 50t3 83q2 63 5 103t9 61.5t17.5 29t27.5 7.5q90 0 90 -156q0 -57 14.5 -63.5t30.5 45.5q4 14 7.5 48t5.5 78t2 92t-1 90t-4 71.5t-7 37.5q-4 10 -19 29t-31 35l-4 2q-23 25 -41 33t-36.5 -1t-42 -37t-56.5 -79q-61 -96 -90 -187t-29 -196z" />
<glyph unicode="R" horiz-adv-x="819" d="M21 1146q2 19 10 32q10 18 23.5 23t58.5 7q29 2 61.5 6.5t48.5 8.5l-4 2q20 6 29.5 9t16.5 3t18.5 -2t40.5 -8q59 -12 106 -37t94 -68q85 -80 85 -189q0 -14 -1 -28q-4 -43 -11 -72.5t-19.5 -55t-32 -50.5t-51.5 -57q-35 -37 -57.5 -68t-22.5 -41q0 -16 32.5 -42.5 t120.5 -86.5q106 -72 167 -125t61 -78q0 -6 -8.5 -17t-19.5 -21.5t-22.5 -17.5t-15.5 -5q-10 4 -45 27.5t-84 56.5t-104.5 71.5t-102.5 73.5t-82 60.5t-43 34.5q-44 46 -44 93q0 70 100 142q45 33 79.5 76t52.5 85q17 40 16 75q0 40 -26 63q-16 14 -31.5 24.5t-32.5 15.5 t-38.5 7t-52.5 2q-27 0 -43.5 -1t-27.5 -4t-19 -9t-17 -14q-10 -10 -15 -17.5t-6 -18t1 -25.5t6 -42q6 -39 7 -70.5t-5 -62.5q-6 -35 -6 -64.5t10 -72.5q8 -41 10 -65.5t0 -47t-8 -46t-12 -60.5q-10 -63 -22.5 -84t-41.5 -21q-20 0 -31.5 8.5t-17.5 45t-10 111.5t-6 208 q-2 70 -4 134.5t-3 116.5t-3 86t-4 44q-4 23 -2 42z" />
<glyph unicode="S" horiz-adv-x="690" d="M57 786q-37 56 -37 111q0 71 60 141q18 23 48 47.5t63.5 47t68.5 43t68 32.5v4q27 10 55.5 17.5t54 8.5t45 -2t27.5 -11q6 -6 9 -20.5t3 -30t-3 -28.5t-9 -20q-16 -12 -55 -22q-29 -8 -64 -25.5t-68.5 -41t-63.5 -49t-46 -48.5q-18 -25 -31.5 -45.5t-13.5 -24.5 q0 -16 37 -35.5t100 -35.5q121 -35 206 -91t126 -120q35 -55 35 -112q0 -10 -1 -20q-7 -68 -71 -124q-109 -100 -289 -133q-62 -11 -103 -11q-25 0 -42 4q-45 11 -72 62q-17 31 -17 49q-1 9 5 15q12 12 61 13q12 0 27 -1h17q35 0 71 6q45 8 88 22.5t81 36t67 47.5 q52 50 52 79t-61 73q-43 33 -104.5 55.5t-155.5 42.5q-72 16 -107.5 36t-60.5 58z" />
<glyph unicode="T" horiz-adv-x="788" d="M25 977q8 31 60 54.5t124 29.5q39 4 62.5 11.5t39.5 21.5l-4 2q29 26 68 28h9q33 0 58 -16q16 -10 29.5 -12t38.5 4q31 8 68.5 13t73.5 7t62.5 1t33.5 -7q18 -14 18 -36q0 -14 -7 -30q-18 -42 -65 -67q-16 -8 -49 -15.5t-69.5 -15.5t-68.5 -17t-46 -18q-8 -6 -13.5 -10 t-8.5 -17.5t-6 -42t-6 -81.5t-7 -136t-8 -206q-4 -68 -6.5 -110t-5.5 -68.5t-7 -38.5t-10 -19q-13 -14 -27 -14q-23 0 -47 39q-6 10 -10 24.5t-6 43t-3 78t-1 128.5q0 49 1 99.5t2 91.5t3 72.5t4 44.5q6 35 5 54t-11 30.5t-36 14.5t-69 3q-108 3 -142 19q-24 12 -25 39 q0 11 4 24z" />
<glyph unicode="U" horiz-adv-x="684" d="M18 753q0 83 5.5 162.5t17.5 133.5q18 84 39.5 112.5t62.5 28.5q82 0 82 -91q0 -38 -14 -93q-6 -23 -10 -63t-6 -88t-2 -96t2 -88t5 -65.5t9 -25.5q12 0 38.5 63.5t55.5 154.5t54.5 192t37.5 179l-4 -4q9 41 29 67q18 22 55 22q6 0 12 -1q23 -2 37.5 -10t22.5 -28.5 t11 -57.5t5 -94q2 -106 7 -186t13.5 -142.5t18.5 -112t25 -92.5q18 -55 27.5 -86.5t8.5 -48t-11.5 -20.5t-30.5 -4q-43 0 -85 42t-63 107q-16 53 -28.5 72.5t-28.5 19.5q-12 0 -24.5 -27.5t-33.5 -99.5q-16 -63 -50 -109t-68 -52q-18 -4 -35 -4q-112 0 -164 169 q-12 37 -17.5 109t-5.5 155z" />
<glyph unicode="V" horiz-adv-x="585" d="M18 1047q0 51 37 67q12 5 23 5q25 0 49 -23q8 -8 14 -19.5t14.5 -32t17.5 -54.5t22 -85q27 -102 48 -168.5t31 -66.5q12 0 25.5 30.5t13.5 59.5q0 16 10.5 61t24.5 99.5t29.5 104.5t28.5 77q10 25 26.5 49.5t28.5 34.5l4 -4q29 25 41 24.5t37 -22.5q25 -23 24.5 -49.5 t-26.5 -90.5q-37 -94 -60.5 -230t-38.5 -341q-10 -151 -36 -191q-14 -23 -40 -22q-21 0 -49 14q-23 12 -42 34t-39 59q-14 27 -36 82t-46.5 123.5t-48 143.5t-43 141.5t-32 117.5t-12.5 72z" />
<glyph unicode="W" horiz-adv-x="972" d="M16 1022q-2 45 11 59q16 18 55 16.5t59 -22.5q23 -23 30 -68.5t17 -82.5q4 -16 7.5 -53t3.5 -72q0 -47 3 -65.5t13 -18.5q16 0 28.5 33.5t35.5 140.5q12 53 21 85t21.5 48t29 21.5t40.5 5.5q51 0 72 -21q8 -8 21.5 -39t26.5 -67.5t23.5 -70.5t10.5 -48q0 -12 11 -55 t26.5 -94.5t32 -97.5t24.5 -64q20 -41 45 -69t41 -28h-6q10 0 15 51.5t9.5 130t11.5 174t19 185.5t31.5 164t52.5 106q31 31 50.5 29t28.5 -25.5t8 -59.5t-9 -71q-16 -63 -28.5 -180t-22.5 -309q-2 -39 -5 -78l-5.5 -71.5t-5.5 -57.5t-5 -35q-4 -23 -7 -39t-5 -20 q0 -4 -6 -13.5t-17 -19.5q-25 -27 -64 -27h-5q-42 2 -88 35q-53 39 -107.5 129t-89.5 191q-29 88 -43 114.5t-31 26.5q-6 0 -9 -4t-7 -24.5t-9 -60.5l-14 -112q-4 -41 -12 -83t-17 -78.5t-19.5 -64.5t-18.5 -40q-10 -16 -19.5 -20.5t-27.5 0.5q-35 8 -59.5 33.5t-46 81 t-41 145.5t-40.5 229q-6 33 -16 87t-18.5 108.5t-10.5 99.5z" />
<glyph unicode="X" horiz-adv-x="620" d="M23 1149q-1 10 -1 19q0 47 35 47q12 0 27 -5q14 -4 33.5 -22.5t39 -43t36 -51t22.5 -46.5q12 -39 36.5 -78t37.5 -41q10 0 24.5 28.5t14.5 51.5q0 14 9 49t22.5 71.5t28 68.5t22.5 40l2 12q18 18 44.5 21.5t43.5 -13.5q14 -14 14 -55v-11q-2 -50 -20 -126 q-33 -125 -46.5 -204t-13.5 -138q0 -27 1 -45.5t5 -33.5t12.5 -31.5t20.5 -39.5q49 -84 78 -140t41 -93t8 -57.5t-20 -30.5q-13 -8 -27 -8q-47 0 -98 98q-51 94 -77 96h-1q-25 0 -53 -86q-8 -25 -22.5 -50.5t-25.5 -35.5q-18 -18 -27 -20t-30 8q-12 6 -23.5 22.5t-17.5 34.5 q-4 14 -6 26.5t1 29t9 40t19 60.5q25 80 38 123t15 67.5t-6 41t-23 44.5q-92 166 -145 272.5t-57 133.5z" />
<glyph unicode="Y" horiz-adv-x="552" d="M23 1006q0 63 3 102t10 61.5t19.5 30.5t30.5 8t30.5 -8t19.5 -29.5t10.5 -58.5t3.5 -96q0 -86 3 -111.5t13 -25.5q16 0 39.5 36.5t46.5 98.5q10 27 27.5 60.5t38 64t39 54.5t30.5 30l-6 4q8 4 25.5 7t33.5 1q27 -2 38 -10t26 -37q10 -23 16 -63t7 -93v-22q0 -44 -3 -94 q-4 -64 -12 -132q-4 -25 -6 -62.5t-5 -83.5t-5 -95t-4 -94q-4 -90 -7.5 -141.5t-10.5 -78t-18.5 -33t-31.5 -3.5q-12 2 -27.5 12t-25.5 22q-8 12 -13.5 23.5t-7.5 33t-2 59.5v103q0 82 3 158t7 133.5t9.5 94t11.5 42.5q12 12 10 26.5t-18 14.5t-17 -22q0 -10 -13 -39 t-32 -57q-31 -47 -47 -73t-28.5 -37t-24.5 -12t-33 -1q-82 0 -117.5 76.5t-35.5 255.5z" />
<glyph unicode="Z" horiz-adv-x="698" d="M21 1057.5q-5 21.5 5.5 40t34 33t60.5 18.5q23 4 67.5 11.5t85.5 17.5q74 16 136.5 16t95.5 -16q27 -14 36 -66q4 -24 4 -52q0 -31 -5 -65q-8 -47 -30 -113.5t-51.5 -142t-64.5 -154.5t-71 -147q-20 -37 -35 -68.5t-15 -41.5q0 -43 40 -43q15 0 36 6q18 6 58.5 9t84.5 4 h29q30 0 56 -1q40 -2 63 -6t29 -12.5t6 -32.5q0 -35 -16.5 -49.5t-69.5 -20.5q-23 -4 -49.5 -11t-42.5 -15q-20 -10 -57.5 -14.5t-116.5 -4.5q-57 0 -94 3t-61 11.5t-38 25t-27 40.5q-10 20 -8 37.5t21 69.5q12 33 41.5 100.5t60.5 132.5q41 86 69.5 149.5t46 111.5t26 85 t12.5 70q4 41 0 48t-29 7q-12 0 -40 -5t-54 -11q-66 -18 -114 -18q-55 0 -87 24q-23 18 -28 39.5z" />
<glyph unicode="[" horiz-adv-x="645" d="M25 166q14 59 24 132t21 157q12 117 32.5 239.5t36.5 241.5q10 80 23.5 154.5t21.5 160.5q4 39 9.5 62.5t15.5 39t28.5 24t49.5 16.5l-2 6q25 6 58.5 9t70.5 4t71.5 -1t59.5 -8q78 -20 78 -78q2 -33 -25 -40t-119 -3q-70 4 -95.5 3t-31.5 -11q-12 -16 -24.5 -68.5 t-23.5 -117t-21.5 -129t-18.5 -103.5q-10 -43 -16 -84t-6 -57t-3 -43t-8 -49q-6 -31 -12 -76t-12 -92t-12.5 -94.5t-12.5 -79.5q-6 -37 -6 -59.5t8.5 -35t28.5 -16.5t55 -4q66 -2 95.5 -9t42.5 -26q12 -20 -9.5 -41.5t-64.5 -38t-97.5 -26t-105.5 -2.5q-74 8 -97.5 39.5 t-6.5 103.5z" />
<glyph unicode="\" horiz-adv-x="399" d="M20.5 1193.5q2.5 17.5 10.5 27.5h4q12 16 40.5 11t55.5 -30q10 -10 23.5 -34.5t28 -59.5t27.5 -76t23 -80q8 -31 17.5 -64.5t15.5 -49.5q10 -25 23.5 -71t27 -103.5t25.5 -118t21.5 -112.5t13.5 -90t2 -48q-14 -57 -57 -57q-53 0 -74 120q-6 39 -14.5 71t-15.5 62.5 t-15 63.5t-17 74q-4 18 -12 50t-20.5 70.5t-26.5 83t-29 85.5q-29 82 -46 136t-25.5 88t-6 51.5z" />
<glyph unicode="]" horiz-adv-x="505" d="M20 182q-4 29 1.5 36t33.5 11q16 4 38 11.5t36 15.5q20 14 29.5 32.5t19.5 78.5q4 29 15.5 84t23.5 123.5t27.5 144.5t28 145.5t21.5 126t13 86.5q4 43 8 82t7 51q2 20 -8.5 25.5t-57.5 9.5q-43 4 -60.5 11.5t-33.5 29.5q-39 47 -20.5 67t120.5 36l-2 2q88 14 132 7 t71 -40q10 -12 15 -21.5t5 -29t-5 -57.5t-15 -109q-8 -57 -20.5 -139t-28 -168t-30.5 -167t-28 -137q-12 -57 -24.5 -128.5t-16.5 -116.5q-4 -49 -11 -83t-13 -42q-8 -8 -44 -16.5t-78 -13.5t-79 -6t-47 5q-10 4 -15 20.5t-8 32.5z" />
<glyph unicode="a" horiz-adv-x="632" d="M20 532q4 57 32 134t66 148t79.5 123t74.5 64q26 8 57 8q38 0 83 -12q12 -4 36.5 -31.5t50 -62.5t46 -70.5t24.5 -54.5q4 -18 3 -47t-5 -55q-6 -31 -5 -58.5t5 -54t8.5 -54.5t4.5 -58q0 -25 5 -57t13 -52q11 -30 11 -49q0 -32 -31 -32q-9 0 -21 3q-86 23 -123 168 q-14 54 -32 54q-18 -1 -52 -58q-68 -123 -174 -123q-33 0 -51.5 6t-42.5 27q-38 35 -52 79q-10 34 -11 84q0 15 1 31zM147 484.5q0 -13.5 7.5 -17.5t19.5 -4q16 0 33.5 16.5t50.5 67.5q23 35 42 67.5t24 44.5q4 12 14 37t20 47q23 45 27 81.5t-12 52.5l2 -3 q-16 16 -31.5 12.5t-44.5 -34.5q-35 -37 -70.5 -111.5t-58.5 -152.5q-12 -41 -17.5 -65.5t-5.5 -38z" />
<glyph unicode="b" horiz-adv-x="534" d="M20 852q0 78 1.5 144.5t4.5 115.5t7 59q4 14 13.5 29t19.5 21l-3 -2q20 16 37 10t39 -35q16 -20 20.5 -49t8.5 -101q2 -47 6 -85.5t8 -43.5q4 -4 24.5 -9t43.5 -9q47 -6 92 -28.5t81 -56.5t59.5 -75t29.5 -84q4 -28 4 -55q0 -90 -40 -172q-52 -108 -163 -190 q-45 -33 -72.5 -49.5t-48 -16.5t-40 18.5t-46.5 53.5q-18 25 -30.5 43t-18.5 37.5t-9 42t-3 51.5t-4 59.5t-8 46.5q-4 14 -7 64.5t-4.5 119t-1.5 146.5zM170 563.5q0 -61.5 4 -118t10 -70.5q14 -29 29.5 -26t56.5 46q94 97 114 181q6 23 6 44q0 55 -40 93h2q-25 23 -42 30 t-54 7q-23 0 -44.5 -4.5t-27.5 -10.5t-10 -58t-4 -113.5z" />
<glyph unicode="c" horiz-adv-x="518" d="M20 549q0 37 1.5 60.5t5.5 42t12 37t24 46.5q18 37 47 74t60 68.5t61.5 55.5t55.5 32l2 2q20 8 31.5 12t19.5 4t16.5 -2t20.5 -6q23 -10 40 -26.5t26.5 -35t8.5 -36t-14 -29.5q-6 -4 -23.5 -9t-35.5 -10q-51 -10 -99.5 -59t-78 -112.5t-34.5 -123.5q-1 -8 -1 -16 q0 -49 29 -76q16 -16 30.5 -20t46.5 0q20 4 56.5 13t64.5 20q43 14 60.5 16t27.5 -6q16 -16 17 -27q0 -10 -11.5 -26.5t-30 -35t-41 -35.5t-44.5 -30q-64 -34 -122 -34q-26 1 -50 7q-80 22 -144 111q-12 16 -19 28.5t-10 28t-4.5 38t-1.5 59.5z" />
<glyph unicode="d" horiz-adv-x="616" d="M23 506v45t5 36.5t13 39t25 51.5q31 61 70.5 111.5t80.5 84.5t82 50q25 9 46 10q14 0 26 -4q9 -3 16 -3q41 0 41 85q0 104 43 139l6 10q20 16 32.5 14.5t33.5 -22.5q25 -23 32 -78q2 -19 2 -41q0 -40 -8 -86q-8 -45 -9 -71.5t7 -53.5q4 -18 8.5 -62t4.5 -87t4 -94.5 t8 -79.5q6 -33 6 -61q0 -21 -4 -41q-8 -44 -31 -60t-46 15.5t-44 105.5q-10 37 -21.5 63.5t-17.5 26.5q-4 -2 -15 -18.5t-22 -38.5q-12 -27 -32.5 -56.5t-44 -56.5t-47 -48.5t-44.5 -29.5q-25 -12 -41 -14t-43 6q-119 31 -122 213zM145 483q0 -20 5.5 -26t21.5 -6 q29 0 68 48t92 154q18 37 29.5 61.5t16.5 39t4 23t-5 14.5v-3q-16 20 -32.5 15.5t-51.5 -41.5q-29 -29 -55.5 -67t-47 -76.5t-33 -74.5t-12.5 -61z" />
<glyph unicode="e" horiz-adv-x="571" d="M23 526q-1 14 -1 30q0 52 15 118q20 86 59 162q33 61 64 88t78 37l2 -5q18 4 29.5 5.5t20.5 0.5t18 -4.5t26 -5.5q29 -6 49 -36q21 -31 29 -73q5 -26 5 -54q0 -16 -2 -33q-5 -45 -26 -78q-55 -92 -143 -105q-47 -8 -62.5 -20t-15.5 -45q0 -66 68 -129l34 -33l283 19 l-8 -33q-4 -12 -11.5 -27.5t-15.5 -23.5q-10 -10 -37.5 -20.5t-61.5 -17.5t-68 -11.5t-54 -0.5q-53 8 -100 36t-84 68t-60.5 89t-29.5 102zM221 727q16 0 34.5 32.5t18.5 59.5q0 29 -16 23t-33 -39q-20 -40 -20 -59q0 -17 16 -17z" />
<glyph unicode="f" horiz-adv-x="581" d="M57 846q37 29 52.5 62.5t15.5 92.5q0 45 11 100.5t28.5 108t40 94.5t45.5 62l8 -2q18 16 48 24.5t62.5 8.5t62.5 -8.5t46 -22.5q14 -12 30.5 -34.5t30 -46t22.5 -44t9 -33.5q0 -29 -16 -45q-9 -8 -20 -8q-34 0 -84 70q-34 46 -57 46v0q-23 -1 -50 -48 q-18 -35 -32.5 -87.5t-21.5 -103.5q-5 -40 -5 -73v-19q2 -41 14 -51q4 -4 22.5 -9.5t38.5 -9.5q61 -10 70 -38q1 -4 1 -8q0 -25 -46 -50q-16 -8 -35.5 -22.5t-34.5 -24.5q-12 -10 -19 -17.5t-10 -19.5t-4 -31.5t-1 -52.5q0 -37 5 -92t13 -96q12 -58 12 -88q0 -11 -2 -18 q-6 -27 -41 -31q-23 -4 -40 9t-32.5 48t-32 93t-34.5 147q-8 41 -14.5 66.5t-13.5 40.5t-15 25.5t-23 20.5q-39 32 -39 62q0 28 35 53z" />
<glyph unicode="g" horiz-adv-x="544" d="M25 733q-4 13 -4 30q0 20 5 46q9 49 27.5 101.5t42.5 98.5t49 64l5 6q31 23 88 23q18 0 31.5 -1t24.5 -7.5t23.5 -16.5t32.5 -28q53 -49 71.5 -89t18.5 -102q0 -25 9.5 -86t23.5 -123q20 -94 32.5 -156.5t17.5 -107.5q3 -28 3 -53q0 -14 -1 -28q-3 -36 -11 -77 q-53 -243 -272 -243h-2q-88 0 -140.5 45t-54.5 121v9q0 55 25 67q5 3 10 3q21 0 39 -43q12 -29 21.5 -44t18.5 -23t22.5 -10.5t35.5 -4.5q10 -1 19 -1q46 0 75 17q35 21 62 75q18 35 23 63.5t5 89.5q0 41 -3 91t-9 81q-10 61 -27 72q-5 2 -12 2q-17 0 -49 -21 q-28 -18 -75 -18h-10q-54 2 -91 25q-31 18 -58.5 62t-41.5 91zM170 770q4 -91 37 -91h1q34 1 81 93q26 51 26 83t-30 77l2 -2q-12 18 -25.5 31.5t-19.5 13.5q-16 0 -30.5 -17.5t-24 -45t-14.5 -65.5q-4 -27 -4 -55q0 -11 1 -22z" />
<glyph unicode="h" horiz-adv-x="602" d="M19 1069q0 109 16 125l6 4q16 20 45 14t51 -34q8 -12 13.5 -23.5t8.5 -35t4 -62.5t3 -103q2 -115 7 -151.5t15 -36.5q14 0 15 10q0 4 16.5 33t38.5 63q53 80 94 110q36 26 87 26h14q35 -4 49 -10.5t30 -32.5q30 -47 42 -101q10 -46 11 -120q0 -13 -1 -27 q0 -45 -5.5 -97.5t-12.5 -99.5t-16 -82t-18 -45q-14 -16 -39.5 -14t-39.5 18q-6 6 -9.5 18.5t-4.5 48.5q0 18 -0.5 44t0.5 60q1 68 5 188q1 20 1 35q0 31 -3 45q-4 20 -16 28q-20 10 -37 -10q-29 -39 -56.5 -97.5t-47.5 -123.5q-33 -106 -65 -184t-48 -89q-18 -12 -49 -3.5 t-43 30.5q-16 29 -26.5 110t-20.5 238q-14 225 -14 334z" />
<glyph unicode="i" horiz-adv-x="200" d="M16 738.5q0 54.5 4.5 88t12.5 41.5h-6q14 16 39.5 18.5t44.5 -14.5q20 -16 31.5 -35.5t17.5 -59.5t8 -111.5t4 -192.5q0 -74 -4 -106.5t-18 -61.5q-21 -45 -46 -45q-20 0 -43 31q-14 18 -20 53t-12 119q-6 82 -9.5 151.5t-3.5 124zM23 1311q0 29 7 34t44 5q76 0 76 -52 q0 -51 -64 -51q-35 0 -48 15.5t-13 50.5z" />
<glyph unicode="j" horiz-adv-x="405" d="M49 90q-32 36 -32 56q0 25 51 25q10 0 22 -1q29 -2 45.5 6t44.5 37q27 25 42.5 44t23.5 43t10 54.5t2 77.5q0 39 -5 90t-14.5 108.5t-21.5 116t-27 113.5q-8 29 -8 42.5t8 23.5l3 2q13 16 34 16q12 0 27 -6q41 -14 61 -53q8 -16 18.5 -57.5t18.5 -97.5t15.5 -125.5 t13.5 -145.5q2 -23 2 -45q0 -61 -13 -115q-16 -74 -48.5 -128t-79.5 -85t-103 -31q-37 0 -52 6.5t-38 28.5zM204 1155q-3 27 13 43l-2 6q14 14 49 14.5t49 -14.5q6 -6 10.5 -20.5t4.5 -30.5t-4.5 -30.5t-10.5 -20.5q-16 -16 -42.5 -13t-45.5 21q-18 18 -21 45z" />
<glyph unicode="k" horiz-adv-x="618" d="M20 1162q1 56 5 61l-2 2q10 16 36.5 14t51.5 -18q33 -23 45 -70t12 -145q0 -100 12.5 -169t30.5 -69q16 0 37 35q8 14 25.5 45t33.5 59q43 74 69.5 99.5t61.5 25.5q65 0 65 -46q0 -47 -69 -165q-29 -47 -54.5 -98t-33.5 -74q-6 -23 -10 -34t-3 -19t6 -15.5t15 -17.5 q12 -10 44 -27.5t65 -27.5q59 -23 95 -47.5t36 -42.5q0 -14 -29 -39q-16 -16 -31.5 -21.5t-48.5 -1.5q-23 2 -54.5 13.5t-67 27t-68.5 34t-55 34.5q-16 12 -27.5 19.5t-13.5 4.5q-2 -2 -8.5 -29.5t-16.5 -64.5q-16 -78 -32.5 -97t-47.5 -3q-16 8 -27.5 25.5t-17.5 53.5 t-9 92t-5 146q0 45 -2 99.5t-3 110t-3 107.5t-4 91q-3 69 -3 118v24z" />
<glyph unicode="l" horiz-adv-x="184" d="M20 801q0 98 1.5 162.5t3.5 105.5t5 60.5t7 29.5l2 2q14 31 43 31q46 0 70 -62q15 -39 15 -92q0 -32 -5 -69q-4 -29 -6 -64t0 -53q0 -10 1 -37t2 -64.5t1 -85v-96.5q0 -84 -1 -132t-3 -74.5t-7.5 -39t-13.5 -24.5q-26 -34 -48 -34q-17 0 -32 22q-10 14 -16 43.5t-10 87 t-6.5 149.5t-2.5 234z" />
<glyph unicode="m" horiz-adv-x="780" d="M25 695q0 40 4 66.5t12 55.5q20 70 40.5 86.5t49.5 -16.5q10 -12 19.5 -35t13.5 -41q6 -47 22 -47q14 0 15 12q0 10 9 22.5t23.5 22.5t32 17.5t31.5 7.5q25 0 39 -8.5t33 -32.5q12 -16 25.5 -28.5t19.5 -12.5q4 0 21.5 20.5t35.5 49.5t44 57.5t42 40.5v-6q39 26 74 26 q17 0 33 -6q48 -20 77 -94q17 -50 19 -150q0 -8 1 -16q0 -93 -16 -199q-19 -123 -49 -167q-14 -20 -28 -20q-17 0 -35 28q-6 8 -10.5 21t-5.5 40t-1 70v114q0 90 -1 140.5t-6 68t-17 6t-33 -44.5q-25 -39 -48.5 -85t-41.5 -92t-32.5 -90t-20.5 -79q-10 -47 -26.5 -64.5 t-51.5 -6.5q-66 16 -66 163q0 45 -4 60.5t-14 15.5q-16 0 -16 -20q0 -10 -5.5 -30.5t-13.5 -41.5q-8 -20 -16 -58t-13 -73q-10 -74 -25 -94.5t-48 -1.5q-18 10 -31.5 22.5t-22 34t-13.5 52t-9 77.5q-8 98 -12 160.5t-4 102.5z" />
<glyph unicode="n" horiz-adv-x="536" d="M22 658q2 60 4.5 111.5t8.5 87.5t12 44q12 12 20.5 13t26.5 -9q29 -16 41 -53t12 -104q0 -73 15 -73t53 64q43 74 81.5 125.5t61.5 61.5l-4 2q18 7 35 7q27 -1 53 -17q43 -28 60 -87q8 -31 10 -97q1 -26 1 -54q0 -42 -2 -87q-3 -75 -11 -146.5t-21 -114.5q-6 -29 -28 -39 q-12 -8 -25.5 -2t-25 21.5t-20.5 40t-11 53.5q-2 20 -3 56v25q0 26 1 54q2 43 5 87t7 81q4 35 -16.5 31.5t-43.5 -40.5q-14 -23 -29.5 -57.5t-31.5 -74.5t-31.5 -84t-27.5 -87q-23 -80 -42.5 -109.5t-47.5 -29.5q-27 0 -40.5 18.5t-29.5 83.5q-6 27 -10 75q-5 47 -7 105 q-2 36 -1 74q0 21 1 44z" />
<glyph unicode="o" horiz-adv-x="567" d="M20 594q8 76 35 146.5t64 127t81 93.5t91 45h-4q18 3 34 3q75 0 125 -53q20 -23 35 -56.5t33 -108.5q12 -53 21.5 -106.5t9.5 -76.5q0 -74 -21.5 -137t-58.5 -110.5t-86 -75t-107 -27.5q-35 0 -57 8t-59 33q-139 91 -139 250q0 22 3 45zM167 504q9 -53 38 -84 q24 -28 68 -28h3q46 1 72 30q30 32 50 94q19 57 18 109v10q-2 57 -15.5 96t-52.5 94l4 -4q-16 23 -32.5 39.5t-22.5 16.5q-12 0 -28.5 -24t-35 -61.5t-35 -83.5t-26.5 -92q-9 -36 -9 -70q0 -21 4 -42z" />
<glyph unicode="p" horiz-adv-x="622" d="M24 716v42q0 39 1 61q2 33 8 39t25.5 16.5t46 21.5t57 22.5t57.5 19.5h-4q20 6 54 6t70 -4t66.5 -11t47.5 -16q14 -10 34.5 -27.5t39 -37t35 -40t24.5 -36.5q8 -14 11 -44t3 -64.5t-5 -68.5t-13 -52q-10 -23 -31 -54.5t-45.5 -62.5t-50 -57.5t-43.5 -38.5 q-25 -16 -52.5 -23.5t-76.5 -11.5l-86 -6l-4 -103q-2 -35 -4.5 -55t-5.5 -34.5t-9 -22.5t-16 -19q-20 -20 -29.5 -22t-28.5 8q-16 8 -24 17.5t-14.5 28.5t-9.5 56t-5 99q-10 174 -16 288.5t-7 185.5zM170 631q2 -166 44 -202q12 -11 29 -11q40 0 105 61q53 47 81 103.5 t28 109.5q0 35 -7 52t-32 40l-2 -2q-37 37 -90 37q-33 0 -72 -14q-29 -10 -45 -20.5t-25.5 -29t-11.5 -48t-2 -76.5z" />
<glyph unicode="q" horiz-adv-x="677" d="M19 601q-1 9 -1 19q0 46 19 107q10 37 31.5 79t47 82t51.5 72t46 44l-6 6q44 27 93 27q24 0 50 -7q76 -20 121 -92q25 -41 28 -96v-13q0 -47 -20 -75q-8 -12 -12 -28.5t-4 -58.5t5 -119t13 -212q4 -53 9.5 -85t13.5 -44t22.5 -8t36.5 22q16 12 30.5 21.5t20.5 9.5 q18 0 29.5 -18.5t5.5 -40.5q-4 -12 -18.5 -42t-33.5 -63t-37.5 -62.5t-27.5 -41.5q-14 -16 -46.5 -19.5t-57.5 10.5q-31 16 -55.5 104.5t-34.5 227.5q-4 31 -8 56.5t-8 29.5t-31 9.5t-60 7.5q-35 2 -58 7t-42.5 15t-36 26.5t-35.5 41.5q-35 49 -40 101zM160 647 q0 -66 12 -87t47 -17q20 2 40 27.5t34 67.5t22.5 98.5t10.5 119.5v-2q2 41 -2.5 55.5t-14.5 18.5q-18 4 -50 -33t-62 -98q-23 -45 -30 -73t-7 -77z" />
<glyph unicode="r" horiz-adv-x="544" d="M32 897q12 36 36 36q11 0 24 -7q29 -16 45.5 -45t26.5 -82q14 -67 35 -67q17 0 39 44q23 43 65.5 92t87.5 82l2 -2q45 33 81 33q6 0 12 -1q40 -7 40 -54q0 -29 -73 -105q-23 -25 -39.5 -44t-29.5 -38.5t-24.5 -43t-23.5 -54.5q-16 -43 -31.5 -95t-19.5 -85t-11.5 -61.5 t-13.5 -39.5q-12 -18 -29.5 -26t-36 -7t-36 12t-27.5 32q-6 12 -18.5 56t-27.5 100.5t-29.5 117t-22.5 107.5q-9 48 -9 85q0 35 8 60z" />
<glyph unicode="s" horiz-adv-x="577" d="M26 436q6 5 14 6q18 0 48 -24q14 -12 43 -18.5t62.5 -6.5t67.5 6.5t58 18.5q20 10 42 25.5t40.5 30.5t29.5 29.5t11 22.5q0 10 -13 25.5t-34.5 32t-47 32t-52.5 25.5q-49 18 -80 33.5t-50.5 33t-30.5 40t-19 57.5q-4 10 -2 26.5t6 28.5q6 18 22.5 40t38 43.5t44 39 t40.5 25.5l-2 -2q20 10 47 15t51.5 6t43 -3t26.5 -12q16 -23 7 -48.5t-40 -43.5q-53 -31 -92 -70q-34 -34 -34 -50q0 -3 1 -5q4 -8 25.5 -23.5t50.5 -30.5q61 -31 102.5 -63.5t73.5 -79.5q20 -29 26.5 -49.5t6.5 -59.5q0 -23 -1 -37t-7 -25t-18.5 -23.5t-34.5 -32.5 q-33 -31 -75 -54.5t-87 -39t-87 -21.5q-18 -3 -34 -3q-22 0 -41 5q-43 10 -82 40t-57 69q-15 31 -15 50q1 12 8 19z" />
<glyph unicode="t" horiz-adv-x="559" d="M18 862q0 29 19.5 43.5t71.5 18.5l59 6l4 157q2 84 6.5 124.5t14.5 50.5q14 20 36 20q47 0 67.5 -40t20.5 -126q0 -145 89 -145q53 0 92 -9.5t39 -19.5q0 -8 -12.5 -22.5t-31 -27.5t-38 -25.5t-33.5 -14.5q-14 -4 -31.5 -14.5t-28.5 -20.5q-10 -10 -14 -19.5t-6 -27.5 t-1 -52t3 -93q4 -87 6 -135q1 -32 1 -54v-20q-1 -26 -4 -34.5t-9 -16.5q-16 -18 -43 -14.5t-45 28.5q-10 12 -20.5 46t-19.5 79t-15.5 94t-8.5 90q0 29 -3 45.5t-11 25.5t-23.5 14t-42.5 9q-39 6 -63.5 29t-24.5 51z" />
<glyph unicode="u" horiz-adv-x="561" d="M22 534q-2 36 -2 72q0 46 2 94q4 84 17 154t29 90l2 4q12 16 37.5 14.5t39.5 -18.5q6 -8 10.5 -46t5.5 -87v-33q0 -34 -1 -68q-2 -52 -8 -87q-6 -41 -4 -51.5t14 -10.5q18 0 18 21q0 10 5.5 24.5t13.5 24.5q10 12 23.5 38.5t23.5 51.5q10 27 26.5 58.5t34 61t34.5 55.5 t32 42q24 26 59 26h8q40 -3 64 -38q8 -12 13 -25.5t8 -44.5t5.5 -85t4.5 -146q2 -111 2 -173.5t-5.5 -91t-16.5 -30.5t-32 8q-27 14 -45 46t-24 75q-12 86 -23.5 132t-21.5 46q-4 0 -17.5 -25.5t-27.5 -60.5t-40 -83t-48 -81q-18 -27 -29.5 -42t-22 -23.5t-20.5 -11.5 t-25 -5q-6 -1 -12 -1q-33 0 -53 20q-24 24 -39 84q-11 44 -15 126z" />
<glyph unicode="v" horiz-adv-x="557" d="M20 880.5q0 30.5 13.5 44t40.5 13.5q35 0 55.5 -35t44.5 -133q14 -57 24.5 -94t17.5 -58.5t14.5 -29.5t15.5 -8q6 0 11 6t13.5 23.5t18.5 50t26 85.5q12 39 28.5 83t35 85t36 73t29.5 46q16 16 41 18.5t41 -14.5q13 -13 13 -39q0 -50 -45 -147q-20 -41 -36 -86 t-28 -102.5t-23.5 -131t-23.5 -172.5q-6 -47 -21.5 -63t-54.5 -12q-25 4 -42 19t-56 73q-20 31 -37.5 59.5t-33 62t-32 75.5t-34.5 96q-27 78 -39.5 130t-12.5 82.5z" />
<glyph unicode="w" horiz-adv-x="718" d="M23 846q8 45 47 45q11 0 24 -4q18 -4 31.5 -21.5t34.5 -64.5q16 -33 27.5 -73t15.5 -64q6 -60 21 -60t38 62q25 66 53.5 121t44.5 67q6 6 21.5 9t32.5 1q41 -4 60.5 -49t29.5 -147q6 -53 10 -88t8 -55.5t10.5 -29t12.5 -8.5q10 0 14 20.5t4 76.5q0 43 6 91t14.5 92t20 78 t21.5 46l-9 2q23 23 50 22h26l-4 -186q-4 -123 -7 -197.5t-11 -119.5t-19.5 -67.5t-29.5 -41.5q-23 -23 -50.5 -18.5t-56.5 27t-54.5 62.5t-41.5 91q-10 35 -21.5 58.5t-15.5 23.5t-18.5 -35t-30.5 -82q-23 -70 -38 -107.5t-29.5 -52t-32 -5.5t-44.5 36q-12 12 -21 26.5 t-18.5 35t-20.5 50t-26 74.5q-20 63 -35.5 122t-26.5 106t-15.5 80.5t-1.5 50.5z" />
<glyph unicode="x" horiz-adv-x="509" d="M29 305q-3 14 -3 31q0 35 13 85q20 75 72 175q20 39 32.5 69.5t12.5 36.5t-12.5 29t-28.5 51q-16 29 -32.5 59.5t-21.5 47.5q-10 27 -7 37t24 30q20 20 28.5 22.5t30.5 -9.5q12 -6 27.5 -21.5t25.5 -32.5q10 -16 21.5 -26t17.5 -10t20.5 16t31.5 39q16 23 31.5 44.5 t23.5 31.5v-4q14 16 33.5 16t38 -10.5t32 -29.5t13.5 -44q0 -14 -6.5 -37.5t-17.5 -49.5t-26.5 -53.5t-31.5 -49.5q-14 -18 -19.5 -39t-0.5 -48.5t21.5 -66.5t45.5 -94q56 -109 68 -153q4 -14 4 -25q0 -24 -17 -33q-7 -4 -15 -4q-43 0 -120 114q-51 76 -74 76 q-12 0 -28.5 -14.5t-32 -36t-27.5 -46t-16 -44.5q-4 -16 -14.5 -38t-20.5 -34q-18 -23 -26.5 -24.5t-28.5 8.5q-27 14 -41 59z" />
<glyph unicode="y" horiz-adv-x="542" d="M16 723q0 86 14.5 114.5t59.5 28.5q25 0 39 -6t22.5 -25.5t11.5 -55.5t3 -93q0 -72 3 -98.5t13 -26.5q6 0 33 44t57 106q31 61 61 113.5t40 62.5l-4 8q25 27 65 28h3q37 0 61 -24q8 -8 12 -16.5t6 -24.5t1 -44t-3 -77q-4 -80 -7 -114.5t-7 -62.5t-8.5 -65.5t-8.5 -123.5 q-14 -231 -22 -340t-15 -119q-10 -18 -38.5 -13t-47.5 27q-27 33 -36 83t-9 107.5t5.5 114t10.5 102.5q4 38 4 65v10q-1 28 -13 28q-18 0 -25 -35q-2 -12 -12.5 -28.5t-24.5 -29.5t-28.5 -23.5t-22.5 -10.5q-12 0 -27.5 7.5t-32 17.5t-31 23.5t-22.5 25.5q-14 23 -28.5 66 t-25.5 92t-18.5 97t-7.5 85z" />
<glyph unicode="z" horiz-adv-x="626" d="M20 872q0 18 6.5 30.5t23 21t45 15.5t75.5 13l-2 -4q43 6 75.5 8t59.5 -2t50.5 -13t49.5 -23q33 -18 46.5 -34t21.5 -44q6 -23 5 -54.5t-9 -65.5t-20.5 -65.5t-28.5 -54.5q-12 -16 -32.5 -45t-37.5 -53q-16 -23 -27.5 -46.5t-9.5 -33.5q4 -16 13.5 -20.5t42.5 -2.5 q67 3 109 5q21 1 38 1q16 -1 28 -1q24 -2 34 -5.5t18 -11.5q12 -12 13 -20.5t-9 -26.5q-14 -27 -61.5 -50.5t-112.5 -35.5q-20 -4 -36.5 -5t-33 0t-37 4t-49.5 9q-72 16 -115.5 38t-54.5 44q-8 22 -8 41q0 13 4 27q10 32 47 73q20 23 50 62t55.5 79t45 73.5t23.5 48.5 q4 18 3 29t-14 15.5t-38.5 4.5t-70.5 -2q-39 -4 -61.5 -4t-38 1t-25 6t-19.5 13q-31 25 -31 61z" />
<glyph unicode="{" />
<glyph unicode="|" horiz-adv-x="219" d="M20.5 785.5q-2.5 142.5 1 259t12.5 194.5t21 94h-2q18 23 48 18t59 -34q12 -12 19 -20.5t10.5 -20.5t2 -30.5t-3.5 -51.5q-4 -37 -9 -84t-9 -76q-4 -27 -6 -63.5t0 -105t7 -178t15 -279.5q8 -156 11.5 -242t-2 -126t-20.5 -48t-44 -8q-27 0 -40 5t-22.5 51t-16.5 151.5 t-19 308.5q-10 143 -12.5 285.5z" />
<glyph unicode="}" />
<glyph unicode="~" horiz-adv-x="724" d="M23 950q-10 53 25.5 100t109.5 74l2 2q66 25 147.5 10.5t157.5 -61.5q23 -14 44 -24.5t30 -10.5q6 0 27.5 9.5t43.5 21.5q35 20 49.5 23.5t24.5 -7.5q8 -6 13 -22t5 -33q0 -25 -9 -42t-36 -44q-23 -23 -40 -33t-38.5 -10t-48 11.5t-63.5 33.5q-86 53 -135 67.5t-94 0.5 q-18 -6 -45 -21.5t-46 -31.5q-41 -37 -79.5 -41t-44.5 28z" />
<glyph unicode="&#xa2;" horiz-adv-x="589" d="M18 694q0 63 55.5 144.5t143.5 146.5q31 23 37 37t6 57q0 27 2 55t6 44q4 27 12.5 31.5t36.5 0.5q39 -4 54.5 -30.5t15.5 -92.5q0 -20 1 -33.5t5 -23.5t12.5 -21.5t20.5 -25.5q16 -18 27.5 -39.5t11.5 -34.5q0 -29 -41 -59l-41 -31v-219l86 8q53 4 71.5 2t22.5 -12 q8 -20 -23.5 -57t-84.5 -68l-66 -39l-6 -117q-4 -66 -8 -96.5t-15 -40.5q-33 -33 -62.5 9t-35.5 130q-2 35 -7 63t-9 32q-4 6 -19.5 11t-31.5 9q-35 6 -67 30.5t-56.5 60.5t-39 80t-14.5 89zM161.5 654.5q0.5 -23.5 26.5 -48.5q16 -16 27.5 -20t22.5 2q10 8 15 30.5t7 81.5 t0 80t-12 21q-16 0 -28.5 -14.5t-35.5 -61.5t-22.5 -70.5z" />
<glyph unicode="&#xa3;" horiz-adv-x="788" d="M18 368.5q2 43.5 31 86.5q37 53 86 71.5t125 3.5q47 -10 61.5 -8t30.5 17q41 37 10 153q-12 51 -23 66.5t-42 21.5q-37 8 -64.5 33t-27.5 47q0 23 13 36t48 24q39 10 51.5 23t12.5 46q0 16 6 49t16 64q14 45 32.5 74.5t55.5 70.5q29 31 58 53.5t45 26.5l-4 -10 q41 12 82 9t72.5 -16.5t51 -38t19.5 -54.5q0 -23 -24.5 -25t-51.5 18q-10 6 -26.5 11.5t-32.5 5.5q-43 0 -90 -58.5t-78 -152.5q-8 -27 -8 -42.5t14 -23.5t44 -9t83 3q41 2 64.5 3t37 -1t20.5 -7t17 -15l25 -27l-25 -25q-10 -10 -44 -23t-71 -24q-51 -12 -80.5 -22 t-44 -24.5t-17.5 -37t-3 -59.5q0 -35 -4 -78t-8 -69q-6 -31 -7 -49.5t8 -30t29.5 -17.5t55.5 -12q29 -6 61.5 -12t48.5 -11q37 -8 51.5 -27.5t-3.5 -37.5q-23 -23 -85.5 -25t-146.5 19l-100 24l-54 -26q-84 -41 -155.5 -47.5t-118.5 24.5q-29 18 -27 61.5zM131 381 q0 -16 29 -16q28 0 28 16t-28 16q-29 0 -29 -16z" />
<glyph unicode="&#xa7;" horiz-adv-x="710" d="M29 193q-35 66 53 49q16 -4 46 -1t56 9q37 10 61.5 23.5t61.5 48.5q39 39 49.5 56t10.5 48q0 16 -2.5 27.5t-10.5 25t-24.5 30.5t-44.5 46q-35 35 -72 66.5t-53 44.5q-16 12 -32.5 32.5t-32 45t-27 51t-17.5 49.5q-6 33 3 69.5t32 69.5t53.5 58.5t67.5 35.5 q51 16 60 32.5t-11 59.5q-12 27 -17.5 64t-5.5 73.5t6.5 70.5t18.5 53q18 29 62 61.5t81 42.5l-2 8q55 16 106.5 4t104.5 -53q47 -37 62.5 -55.5t17.5 -40.5q0 -16 -7 -21.5t-34 -5.5q-23 0 -42 9.5t-46 31.5q-33 31 -45 34t-43 -5q-76 -25 -103.5 -87.5t1.5 -144.5 q6 -16 22.5 -49t36.5 -61q45 -68 71.5 -133.5t28.5 -112.5q0 -27 -12 -59.5t-41 -85.5q-23 -41 -37 -74t-14 -39t8 -31.5t21 -54.5q39 -94 22.5 -166t-90.5 -137q-23 -20 -44 -33.5t-45 -23t-53.5 -14.5t-68.5 -7q-61 -4 -93 9.5t-54 56.5zM195 872q0 -25 1 -41t5 -26 t12 -19.5t20 -21.5q41 -41 63.5 -36t55.5 58q23 35 30 59.5t7 59.5q0 23 -4 44.5t-10 27.5h2q-8 8 -25.5 11t-39 2t-43 -7t-36.5 -14q-14 -8 -21 -14.5t-11 -15.5t-5 -24.5t-1 -42.5z" />
<glyph unicode="&#xab;" horiz-adv-x="800" d="M20 723q0 31 19.5 61.5t79.5 94.5q25 27 54.5 66.5t47.5 70.5t36 57.5t26 32.5h4q23 16 39 12t45 -33q20 -23 25 -36t1 -29q-4 -14 -22.5 -47t-44 -71t-54 -74.5t-49.5 -59.5q-45 -49 -39 -68q4 -6 45 -31.5t99 -54.5q55 -29 89 -48t50 -32.5t19.5 -23.5t-5.5 -23 q-16 -25 -54 -21.5t-124 36.5q-82 33 -136 59.5t-88 52t-48.5 52t-14.5 57.5zM391 815.5q0 24.5 4 47t15 38.5q10 12 30 38.5t43 51.5h2q31 37 47.5 49.5t38.5 12.5q35 0 49.5 -15.5t14.5 -54.5q0 -31 -25.5 -75t-58.5 -72q-35 -29 -2 -61t117 -52q98 -23 115.5 -58.5 t-60.5 -46.5q-41 -6 -86 0.5t-87 21.5t-78 38.5t-56 52.5q-10 14 -16.5 37t-6.5 47.5z" />
<glyph unicode="&#xad;" horiz-adv-x="520" d="M20.5 670.5q-2.5 19.5 10 36t37.5 24.5q10 4 67.5 5t126.5 -1q49 0 83 -2t57.5 -4t38 -6t26.5 -10q74 -37 -10 -78q-33 -16 -84 -26.5t-106.5 -14.5t-106.5 -1t-84 13q-27 8 -40 26.5t-15.5 38z" />
<glyph unicode="&#xbb;" horiz-adv-x="659" d="M24.5 461q-8.5 37 36.5 88q72 82 115 150.5t43 97.5q0 10 -13 32.5t-32.5 47t-42 47t-39.5 34.5q-41 27 -57 57t0 48l-2 -2q16 16 53 16q23 0 45.5 -13t65.5 -50q29 -27 53 -45.5t29 -18.5q8 0 19 -18.5t19.5 -46t14.5 -60t6 -63.5q0 -35 -5 -63.5t-16.5 -56.5t-32 -55.5 t-51.5 -62.5q-51 -57 -82.5 -78.5t-64.5 -21.5q-53 0 -61.5 37zM319 1057l3 4q0 29 5 35t31 6q27 0 70 -25.5t85 -62.5t76 -78t42 -70q23 -80 -9 -172t-104 -157q-41 -37 -72.5 -43.5t-47 10t-9.5 51.5t41 80q16 20 31.5 47t27 53.5t18.5 49t7 36.5q0 8 -6 18.5t-23.5 27 t-47 44t-77.5 68.5q-25 23 -33 37t-8 41z" />
<glyph unicode="&#xbf;" horiz-adv-x="591" d="M22 296q1 26 13 73q23 80 69.5 155.5t126.5 157.5v-2q31 31 50.5 49.5t34 28.5t25.5 13t24 3q68 0 86 -67q2 -10 0 -18.5t-12.5 -22t-31 -34t-53.5 -50.5q-94 -86 -139 -162t-45 -150q0 -41 6 -52t33 -28q16 -10 35.5 -16t31.5 -6q18 0 45 7t53.5 18.5t52.5 27t44 31.5 q102 94 102 -37q0 -33 -7 -49t-34 -39q-33 -31 -79.5 -50.5t-98 -25.5t-103.5 0t-95 29q-59 29 -85 60.5t-40 90.5q-10 39 -9 65zM376 1097.5q-1 16.5 2 32t11 23.5t23.5 11t32 2t32 -7t25.5 -14q8 -10 14 -25.5t7 -32t-2 -32t-11 -23.5t-23.5 -11t-32 -2t-32.5 6t-25 15 q-10 8 -15 24.5t-6 33z" />
<glyph unicode="&#xc0;" />
<glyph unicode="&#xc1;" />
<glyph unicode="&#xc2;" />
<glyph unicode="&#xc4;" />
<glyph unicode="&#xc7;" />
<glyph unicode="&#xc8;" />
<glyph unicode="&#xc9;" />
<glyph unicode="&#xca;" />
<glyph unicode="&#xcb;" />
<glyph unicode="&#xce;" />
<glyph unicode="&#xcf;" />
<glyph unicode="&#xd1;" />
<glyph unicode="&#xd3;" />
<glyph unicode="&#xd4;" />
<glyph unicode="&#xd6;" />
<glyph unicode="&#xd9;" />
<glyph unicode="&#xda;" />
<glyph unicode="&#xdb;" />
<glyph unicode="&#xdc;" />
<glyph unicode="&#xdf;" />
<glyph unicode="&#xe0;" />
<glyph unicode="&#xe1;" />
<glyph unicode="&#xe2;" />
<glyph unicode="&#xe4;" />
<glyph unicode="&#xe7;" />
<glyph unicode="&#xe8;" />
<glyph unicode="&#xe9;" />
<glyph unicode="&#xea;" />
<glyph unicode="&#xeb;" />
<glyph unicode="&#xee;" />
<glyph unicode="&#xef;" />
<glyph unicode="&#xf3;" />
<glyph unicode="&#xf4;" />
<glyph unicode="&#xf6;" />
<glyph unicode="&#xf9;" />
<glyph unicode="&#xfa;" />
<glyph unicode="&#xfb;" />
<glyph unicode="&#xfc;" />
<glyph unicode="&#x2000;" horiz-adv-x="775" />
<glyph unicode="&#x2001;" horiz-adv-x="1551" />
<glyph unicode="&#x2002;" horiz-adv-x="775" />
<glyph unicode="&#x2003;" horiz-adv-x="1551" />
<glyph unicode="&#x2004;" horiz-adv-x="517" />
<glyph unicode="&#x2005;" horiz-adv-x="387" />
<glyph unicode="&#x2006;" horiz-adv-x="258" />
<glyph unicode="&#x2007;" horiz-adv-x="258" />
<glyph unicode="&#x2008;" horiz-adv-x="193" />
<glyph unicode="&#x2009;" horiz-adv-x="310" />
<glyph unicode="&#x200a;" horiz-adv-x="86" />
<glyph unicode="&#x2010;" horiz-adv-x="520" d="M20.5 670.5q-2.5 19.5 10 36t37.5 24.5q10 4 67.5 5t126.5 -1q49 0 83 -2t57.5 -4t38 -6t26.5 -10q74 -37 -10 -78q-33 -16 -84 -26.5t-106.5 -14.5t-106.5 -1t-84 13q-27 8 -40 26.5t-15.5 38z" />
<glyph unicode="&#x2011;" horiz-adv-x="520" d="M20.5 670.5q-2.5 19.5 10 36t37.5 24.5q10 4 67.5 5t126.5 -1q49 0 83 -2t57.5 -4t38 -6t26.5 -10q74 -37 -10 -78q-33 -16 -84 -26.5t-106.5 -14.5t-106.5 -1t-84 13q-27 8 -40 26.5t-15.5 38z" />
<glyph unicode="&#x2012;" horiz-adv-x="520" d="M20.5 670.5q-2.5 19.5 10 36t37.5 24.5q10 4 67.5 5t126.5 -1q49 0 83 -2t57.5 -4t38 -6t26.5 -10q74 -37 -10 -78q-33 -16 -84 -26.5t-106.5 -14.5t-106.5 -1t-84 13q-27 8 -40 26.5t-15.5 38z" />
<glyph unicode="&#x2013;" horiz-adv-x="1061" d="M21 670.5q-5 19.5 21.5 36t79.5 24.5q21 4 143.5 5t268.5 -1q105 0 177 -2t122 -4t81 -6t56 -10q158 -37 -21 -78q-70 -16 -178.5 -26.5t-226.5 -14.5t-226.5 -1t-178.5 13q-58 8 -85.5 26.5t-32.5 38z" />
<glyph unicode="&#x2014;" horiz-adv-x="2086" d="M21.5 670.5q-10.5 19.5 42.5 36t160 24.5q42 4 286.5 5t538.5 -1q208 0 352.5 -2t244.5 -4t162 -6t113 -10q314 -37 -43 -78q-140 -16 -357 -26.5t-453 -14.5t-453 -1t-357 13q-115 8 -170.5 26.5t-66 38z" />
<glyph unicode="&#x2019;" horiz-adv-x="286" d="M19 928.5q-1 42.5 16 120.5q12 57 21.5 98t16.5 75.5t13 66.5t14 73t17.5 74t13.5 39q10 14 39 14q12 0 28.5 -9.5t31 -23.5t24.5 -28.5t10 -26.5q0 -35 -13 -99.5t-31.5 -135t-40 -134t-38.5 -96.5q-25 -47 -52.5 -65.5t-45.5 -2.5q-23 18 -24 60.5z" />
<glyph unicode="&#x201c;" horiz-adv-x="612" d="M20.5 431q-3.5 38 14.5 56v-2q14 14 49 7t80 -33q66 -39 95.5 -92.5t14.5 -106.5q-14 -51 -38.5 -72.5t-69.5 -21.5q-61 0 -70.5 24.5t31.5 83.5q10 14 6 22.5t-27 27.5q-14 12 -31.5 26.5t-27.5 24.5q-23 18 -26.5 56zM348.5 471q-8.5 21 7.5 37v2q14 14 54 14 q20 0 47.5 -16t53.5 -41t47.5 -54.5t27.5 -54.5q8 -31 6 -67.5t-11.5 -70.5t-25.5 -59.5t-35 -33.5q-25 -10 -55.5 -6t-42.5 18q-10 10 -7 24.5t19 51.5q16 39 24.5 61.5t6.5 39t-16.5 35t-40.5 46.5q-51 53 -59.5 74z" />
<glyph unicode="&#x201d;" horiz-adv-x="612" d="M24 1178q1 45 13 88q10 41 25.5 65.5t48.5 57.5l2 2q23 23 44 39t27 16q18 0 29.5 -17.5t13.5 -42t-5 -51t-23 -47.5q-29 -35 -41.5 -82t-7.5 -100q4 -51 -5.5 -69.5t-40.5 -18.5q-25 0 -44 22.5t-28 57.5t-8 80zM340 1133q-31 130 86 249h6q57 61 88 62q10 0 24.5 -7 t27 -16.5t20.5 -20.5t8 -20q0 -6 -14.5 -26.5t-34.5 -42.5q-23 -25 -41 -54.5t-31.5 -59.5t-20.5 -55.5t-3 -39.5q6 -25 -8.5 -42.5t-40.5 -17.5q-27 0 -40.5 18.5t-25.5 72.5z" />
<glyph unicode="&#x2022;" horiz-adv-x="362" d="M25 930q29 84 90 123l-4 4q31 20 63.5 21t79.5 -17q55 -23 75.5 -76t0.5 -123q-18 -66 -47 -92.5t-82 -26.5q-39 0 -75 17.5t-62.5 45.5t-38 60.5t-0.5 63.5z" />
<glyph unicode="&#x202f;" horiz-adv-x="310" />
<glyph unicode="&#x205f;" horiz-adv-x="387" />
<glyph unicode="&#x20ac;" horiz-adv-x="753" d="M23 708.5q8 16.5 55 41.5q20 10 51 43.5t72 95.5q63 92 116.5 142t116.5 73v4q76 25 139 -18q57 -41 46 -68t-78 -18q-23 2 -35 2t-23.5 -5.5t-25 -16.5t-33.5 -32q-53 -53 -79 -93t-19 -58q2 -6 7 -9.5t17 -5.5t34 -1t56 3q74 4 93.5 2t23.5 -14q10 -25 -35 -55.5 t-133 -58.5q-47 -16 -75.5 -30t-28.5 -22q0 -10 7 -11t30 3q55 12 102 9t65 -19q25 -20 25 -37q0 -16 -41 -32.5t-100 -22.5q-53 -6 -60.5 -18.5t23.5 -41.5q12 -10 44 -20t75 -16.5t90 -10.5t90 -2q53 4 70.5 1t25.5 -15q12 -23 -7 -41.5t-59 -31.5t-93.5 -18t-106.5 3 q-66 10 -123 23.5t-80 23.5q-10 4 -38.5 29.5t-63.5 56.5q-33 31 -58.5 52.5t-29.5 21.5q-8 0 -23 24q-10 14 -11 25.5t5 29.5q8 18 6 33t-16 43q-18 41 -10 57.5z" />
<glyph unicode="&#x25fc;" horiz-adv-x="1024" d="M0 0v1024h1024v-1024h-1024z" />
</font>
</defs>
</svg>
